Sign Up   |   Sign In  
The ChannelRoadkillYannickThe Nature of ThingsThis TownA Very Royal Crisis: Countdown to AbdicationShogunResident AlienThe Taste of ThingsNinja KamuiThe Ace and the ScoutOne for the RoadBeacon 23ParishSaturday Night LiveImmoral WomenFantastic Four: Rise of the Silver SurferWillowFalloutGrey's AnatomyS.W.A.T.Riddle of FirePacific Rim: UprisingScrambledFBI

Announcements

03/01

2024

1

Comments

Young Sheldon S07E03 A Strudel and a Hot American Boy Toy 720p AMZN WEB-DL DDP5 1 H 264-FLUX
[RR/NF/CU]
Size: 513MB mkv H264 (HIGH) / EAC3  HD  1280x720

Young Sheldon
File Information
[img]http://lookpic.com/cdn/i2/t/0301202406361685-1.jpg[/img]
[img]http://lookpic.com/cdn/i2/t/0301202406361685-2.jpg[/img]
[img]http://lookpic.com/cdn/i2/t/0301202406361685-3.jpg[/img]

General
Unique ID                                : 209034226526684703868076325508628248109 (0x9D4287128F6B66628C66D9669186762D)
Complete name                            : Young.Sheldon.S07E03.A.Strudel.and.a.Hot.American.Boy.Toy.720p.AMZN.WEB-DL.DDP5.1.H.264-FLUX.mkv
Format                                   : Matroska
Format version                           : Version 4
File size                                : 513 MiB
Duration                                 : 19 min 38 s
Overall bit rate                         : 3 653 kb/s
Frame rate                               : 23.976 FPS
Writing application                      : mkvmerge v82.0 ('I'm The President') 64-bit
Writing library                          : libebml v1.4.5 + libmatroska v1.7.1

Video
ID                                       : 1
Format                                   : AVC
Format/Info                              : Advanced Video Codec
Format profile                           : High@L3.1
Format settings                          : CABAC / 4 Ref Frames
Format settings, CABAC                   : Yes
Format settings, Reference frames        : 4 frames
Codec ID                                 : V_MPEG4/ISO/AVC
Duration                                 : 19 min 38 s
Bit rate mode                            : Constant
Bit rate                                 : 3 010 kb/s
Nominal bit rate                         : 6 000 kb/s
Width                                    : 1 280 pixels
Height                                   : 720 pixels
Display aspect ratio                     : 16:9
Frame rate mode                          : Constant
Frame rate                               : 23.976 (24000/1001) FPS
Color space                              : YUV
Chroma subsampling                       : 4:2:0
Bit depth                                : 8 bits
Scan type                                : Progressive
Bits/(Pixel*Frame)                       : 0.136
Stream size                              : 423 MiB (82%)
Language                                 : English (US)
Default                                  : Yes
Forced                                   : No
Color range                              : Limited
Color primaries                          : BT.709
Transfer characteristics                 : BT.709
Matrix coefficients                      : BT.709

Audio
ID                                       : 2
Format                                   : E-AC-3
Format/Info                              : Enhanced AC-3
Commercial name                          : Dolby Digital Plus
Codec ID                                 : A_EAC3
Duration                                 : 19 min 38 s
Bit rate mode                            : Constant
Bit rate                                 : 640 kb/s
Channel(s)                               : 6 channels
Channel layout                           : L R C LFE Ls Rs
Sampling rate                            : 48.0 kHz
Frame rate                               : 31.250 FPS (1536 SPF)
Compression mode                         : Lossy
Stream size                              : 89.9 MiB (18%)
Language                                 : English
Service kind                             : Complete Main
Default                                  : Yes
Forced                                   : No

Text #1
ID                                       : 3
Format                                   : UTF-8
Codec ID                                 : S_TEXT/UTF8
Codec ID/Info                            : UTF-8 Plain Text
Duration                                 : 18 min 42 s
Bit rate                                 : 90 b/s
Frame rate                               : 0.375 FPS
Count of elements                        : 421
Stream size                              : 12.4 KiB (0%)
Language                                 : English (US)
Default                                  : No
Forced                                   : No

Text #2
ID                                       : 4
Format                                   : UTF-8
Codec ID                                 : S_TEXT/UTF8
Codec ID/Info                            : UTF-8 Plain Text
Duration                                 : 18 min 59 s
Bit rate                                 : 94 b/s
Frame rate                               : 0.394 FPS
Count of elements                        : 449
Stream size                              : 13.1 KiB (0%)
Title                                    : SDH
Language                                 : English (US)
Default                                  : No
Forced                                   : No

Menu
00:00:00.000                             : en:Scene 1
00:19:09.000                             : en:End Credits



Download
File Container: MKV
Video/Audio Codec: H264 (HIGH) EAC3
Video Resolution: 1280x720

1 Response to "[RR/NF/CU] Young Sheldon S07E03 A Strudel and a Hot American Boy Toy 720p AMZN WEB-DL DDP5 1 H 264-FLUX (513MB)"
03/01/24
08:24:43
ReadyPlayerOne

Thank You

Please Login to post a comment.
If you don't have any account, please Register.
  • Subscribe my Feeds
  • Facebook
Encoding Queue:  x264  x265

Latest Episodes

Popular Movies and TV Shows

  • The Channel
  • Roadkill
  • Yannick
  • The Nature of Things
  • This Town
  • A Very Royal Crisis: Countdown to Abdication
  • Shogun
  • Resident Alien
  • The Taste of Things
  • Ninja Kamui
  • The Ace and the Scout
  • One for the Road
  • Beacon 23
  • Parish
  • Saturday Night Live
  • Immoral Women
  • Fantastic Four: Rise of the Silver Surfer
  • Willow
  • Fallout
  • Grey's Anatomy
  • S.W.A.T.
  • Riddle of Fire
  • Pacific Rim: Uprising
  • Scrambled
  • FBI

Recent Comments

  • mentalityx:

    Rad bloke

  • DownloadHostInspector:

    so far these RMTeam uploads always have a working link. DownloadHostInspector approved!

  • DownloadHostInspector:

    ah yes, this upload has a host that works. clicknupload. DownloadHostInspector approved!

  • DownloadHostInspector: Why are all the download hosts trash? none of them let you download it
  • Qua4ratic:

    clicknupload link plz

  • ppoo:

    Please, can you add "Real Time with Bill Maher S22E11" ??

  • theahtisham:

    Kindly upload Ep. 3 and 4 as well.

  • Kudzu: Update on sound issue, File's codec info says stereo but is only a the left channel If I switch i...
  • Admin:

    kang
    Getting error while encoding, sorry

Archives