Sign Up   |   Sign In  
House of the DragonPlatonicCaracasCry-BabyEnter Three DragonsThe Einstein ChallengeNCISRiddickReturn to Never LandTwo Way StretchManhuntPhysicalMayor of KingstownWalkerHotel CocaineCats in the MuseumJack Whitehall: Settle DownCalamity JaneInterview with the VampireThe Loud HouseMy Adventures with SupermanOctopussyDaaaaaali!Kung Fu HustleThe Daily Show

Announcements

05/17

2024

1

Comments

Young Sheldon S07E14 Memoir 1080p AMZN WEB-DL DDP5 1 H 264-FLUX
[RR/NF/CU]
Size: 1.3GB mkv H264 (HIGH) / EAC3  HD  1920x1080

Young Sheldon
File Information
[img]http://lookpic.com/cdn/i2/t/0517202406391782-1.jpg[/img]
[img]http://lookpic.com/cdn/i2/t/0517202406391782-2.jpg[/img]
[img]http://lookpic.com/cdn/i2/t/0517202406391782-3.jpg[/img]

General
Unique ID                                : 239536108655048566496707984407947313226 (0xB434F9F81B9BAAD6E81E77B6B5B7004A)
Complete name                            : Young Sheldon S07E14 Memoir 1080p AMZN WEB-DL DDP5 1 H 264-FLUX.mkv
Format                                   : Matroska
Format version                           : Version 4
File size                                : 1.27 GiB
Duration                                 : 21 min 18 s
Overall bit rate                         : 8 567 kb/s
Frame rate                               : 23.976 FPS
Writing application                      : mkvmerge v83.0 ('Circle Of Friends') 64-bit
Writing library                          : libebml v1.4.5 + libmatroska v1.7.1

Video
ID                                       : 1
Format                                   : AVC
Format/Info                              : Advanced Video Codec
Format profile                           : High@L4
Format settings                          : CABAC / 4 Ref Frames
Format settings, CABAC                   : Yes
Format settings, Reference frames        : 4 frames
Codec ID                                 : V_MPEG4/ISO/AVC
Duration                                 : 21 min 18 s
Bit rate mode                            : Constant
Bit rate                                 : 7 924 kb/s
Nominal bit rate                         : 10 000 kb/s
Width                                    : 1 920 pixels
Height                                   : 1 080 pixels
Display aspect ratio                     : 16:9
Frame rate mode                          : Constant
Frame rate                               : 23.976 (24000/1001) FPS
Color space                              : YUV
Chroma subsampling                       : 4:2:0
Bit depth                                : 8 bits
Scan type                                : Progressive
Bits/(Pixel*Frame)                       : 0.159
Stream size                              : 1.18 GiB (93%)
Language                                 : English (US)
Default                                  : Yes
Forced                                   : No
Color range                              : Limited
Color primaries                          : BT.709
Transfer characteristics                 : BT.709
Matrix coefficients                      : BT.709

Audio
ID                                       : 2
Format                                   : E-AC-3
Format/Info                              : Enhanced AC-3
Commercial name                          : Dolby Digital Plus
Codec ID                                 : A_EAC3
Duration                                 : 21 min 18 s
Bit rate mode                            : Constant
Bit rate                                 : 640 kb/s
Channel(s)                               : 6 channels
Channel layout                           : L R C LFE Ls Rs
Sampling rate                            : 48.0 kHz
Frame rate                               : 31.250 FPS (1536 SPF)
Compression mode                         : Lossy
Stream size                              : 97.5 MiB (7%)
Language                                 : English (US)
Service kind                             : Complete Main
Default                                  : Yes
Forced                                   : No

Text #1
ID                                       : 3
Format                                   : UTF-8
Codec ID                                 : S_TEXT/UTF8
Codec ID/Info                            : UTF-8 Plain Text
Duration                                 : 20 min 45 s
Bit rate                                 : 87 b/s
Frame rate                               : 0.389 FPS
Count of elements                        : 485
Stream size                              : 13.3 KiB (0%)
Language                                 : English (US)
Default                                  : No
Forced                                   : No

Text #2
ID                                       : 4
Format                                   : UTF-8
Codec ID                                 : S_TEXT/UTF8
Codec ID/Info                            : UTF-8 Plain Text
Duration                                 : 20 min 45 s
Bit rate                                 : 91 b/s
Frame rate                               : 0.406 FPS
Count of elements                        : 506
Stream size                              : 13.9 KiB (0%)
Title                                    : SDH
Language                                 : English (US)
Default                                  : No
Forced                                   : No

Menu
00:00:00.000                             : en:Scene 1
00:21:13.000                             : en:Outro



Download
File Container: MKV
Video/Audio Codec: H264 (HIGH) EAC3
Video Resolution: 1920x1080

1 Response to "[RR/NF/CU] Young Sheldon S07E14 Memoir 1080p AMZN WEB-DL DDP5 1 H 264-FLUX (1.3GB)"
05/17/24
07:30:53
ReadyPlayerOne

Thank You

Please Login to post a comment.
If you don't have any account, please Register.
  • Subscribe my Feeds
  • Facebook
Encoding Queue:  x264  x265

Latest Episodes

Popular Movies and TV Shows

  • House of the Dragon
  • Platonic
  • Caracas
  • Cry-Baby
  • Enter Three Dragons
  • The Einstein Challenge
  • NCIS
  • Riddick
  • Return to Never Land
  • Two Way Stretch
  • Manhunt
  • Physical
  • Mayor of Kingstown
  • Walker
  • Hotel Cocaine
  • Cats in the Museum
  • Jack Whitehall: Settle Down
  • Calamity Jane
  • Interview with the Vampire
  • The Loud House
  • My Adventures with Superman
  • Octopussy
  • Daaaaaali!
  • Kung Fu Hustle
  • The Daily Show

Recent Comments

Archives