Sign Up   |   Sign In  

Announcements

Want to support us?
Buy a RapidRAR account from our resellers:
Buy or renew a NitroFlare account via THIS LINK

04/20

2017

No

Comments

Your Pretty Face is Going to Hell S03E09 WEB-DL x264-RARBG
[RR/NF/UL/OL/OLw/UR/CU]
Size: 96MB mp4 H264 (HIGH) (AVC1) / AAC (LC) (MP4A) 720x400

Your Pretty Face Is Going to Hell
Click on the image to see full size
[RR/NF/UL/OL/OLw/UR/CU] Your Pretty Face is Going to Hell S03E09 WEB-DL x264-RARBG (96MB) - Snapshot 1[RR/NF/UL/OL/OLw/UR/CU] Your Pretty Face is Going to Hell S03E09 WEB-DL x264-RARBG (96MB) - Snapshot 2
File Information
[URL]http://www.imdb.com/title/tt2362694/[/URL]
[screenshots]
[URL=http://imagecurl.com/viewer.php?file=24222575526303146592.png][IMG]http://imagecurl.com/images/24222575526303146592_thumb.png[/IMG][/URL]
[URL=http://imagecurl.com/viewer.php?file=38415767245747007217.png][IMG]http://imagecurl.com/images/38415767245747007217_thumb.png[/IMG][/URL]

[/screenshots]


[mediainfo]
Video
ID                                       : 1
Format                                   : AVC
Format/Info                              : Advanced Video Codec
Format profile                           : [email protected]
Format settings, CABAC                   : Yes
Format settings, ReFrames                : 5 frames
Codec ID                                 : avc1
Codec ID/Info                            : Advanced Video Coding
Duration                                 : 11mn 14s
Bit rate                                 : 1 068 Kbps
Width                                    : 720 pixels
Height                                   : 400 pixels
Display aspect ratio                     : 16:9
Frame rate mode                          : Constant
Frame rate                               : 23.976 (24000/1001) fps
Color space                              : YUV
Chroma subsampling                       : 4:2:0
Bit depth                                : 8 bits
Scan type                                : Progressive
Bits/(Pixel*Frame)                       : 0.155
Stream size                              : 85.9 MiB (89%)
Title                                    : RARBG.COM - Your.Pretty.Face.is.Going.to.Hell.S03E09.WEB-DL.x264-RARBG
Writing library                          : x264 core 148 r2597M e86f3a1
 Encoding settings                        : cabac=1 / ref=5 / deblock=1:-1:-1 / analyse=0x3:0x113 / me=umh / subme=9 / psy=1 / psy_rd=1.00:0.15 / mixed_ref=1 / me_range=16 / chroma_me=1 / trellis=2 / 8x8dct=1 / cqm=0 / deadz / fast pskip=1 / chroma_qp_offset=-3 / threads=12 / lookahead_threads=1 / sliced_threads=0 / nr=0 / decimate=1 / interlaced=0 / bluray_compat=0 / c / bframes=3 / b_pyramid=2 / b_adapt=2 / b_bias=0 / direct=3 / weightb=1 / open_gop=0 / weightp=2 / keyint=250 / keyint_min=23 / scenecut=40 / intra_refresh=0 / rc_lookahead=50 / rc=crf / mbtree=1 / crf=19.0 / qcomp=0.60 / qpmin=0 / qpmax=69 / qpstep=4 / ip_ratio=1.40 / aq=1:1.00
Language                                 : English
Encoded date                             : UTC 2017-04-20 01:38:15
Tagged date                              : UTC 2017-04-20 01:38:15

Audio
ID                                       : 2
Format                                   : AAC
Format/Info                              : Advanced Audio Codec
Format profile                           : LC
Codec ID                                 : 40
Duration                                 : 11mn 15s
Duration_LastFrame                       : -11ms
Bit rate mode                            : Constant
Bit rate                                 : 128 Kbps
Channel(s)                               : 2 channels
Channel positions                        : Front: L R
Sampling rate                            : 48.0 KHz
Frame rate                               : 46.875 fps (1024 spf)
Compression mode                         : Lossy
Stream size                              : 10.3 MiB (11%)
Title                                    : RARBG.COM - Your.Pretty.Face.is.Going.to.Hell.S03E09.WEB-DL.x264-RARBG
Language                                 : English
Default                                  : Yes
Alternate group                          : 1
Encoded date                             : UTC 2017-04-20 01:38:15
Tagged date                              : UTC 2017-04-20 01:38:15



[/mediainfo]
Download
File Container: MP4
Video/Audio Codec: H264 (HIGH) (AVC1) AAC (LC) (MP4A)
Video Resolution: 720x400
 
 
 
 
 
 
Watch Online [MP4]

Show us some love

Leave a Comment

  • (never displayed)
  •  
        Members don't see captchas. Sign Up / Sign In
  • Notify me via email when someone responds.
  • Subscribe my Feeds
  • Facebook

Latest Episodes

Popular Movies and TV Shows

  • Gotham
  • Better Call Saul
  • Supergirl
  • The Shape of Things
  • Grace
  • Monster's Ball
  • Quantico
  • Bates Motel
  • Taken
  • The Legend of Ben Hall
  • Logan
  • Smokin' Aces
  • A.P.B.
  • Outcast
  • North Woods Law
  • Legends of the Hidden Temple
  • Si-Gan-Wi-Ui Jib
  • Votez Bougon
  • Into the Badlands
  • Billions
  • Silicon Valley
  • The Fate of the Furious
  • Get Out
  • Mine
  • Elementary

Recent Comments

  • andrei:

    can re-up?

  • PrometheusUFO: Oops, the rest are under MST3k The Return: Cry Wilderness. Silly.
  • lordlegendiv: Thank you buddy . I still don't get 1 thing, how did an episode that aired 4 days ago(emergency pun...
  • PrometheusUFO: Could you pleeeease do the rest of Mystery Science theater 3000 The Return S01 in 720p x265? Thanks ...
  • peyman usa:

    savage.dog.2017.1080p.bluray.hevc.x265.rmteam.mkv

  • b00mer: HelloCan you reup this movie to Uploaded.net, UploadRocket or ClicknUpload.Thank you
  • charlesatlas:

    there is no five or seven. Please advise and thank you.

  • ramirez_:

    can you please reup the ul link? thanks

  • ramirez_:

    can you please reup the ul link? thanks!

  • meridian: The 1080p version is in the re-encode queue, so I'd think there's a good chance for this 720p to be ...