Sign Up   |   Sign In  
MacGyverThe Fall GuyWWE NXTColors of Evil: RedPanchayatElizabethan ExpressFuriosa: A Mad Max SagaMasterChef AustraliaUnder the BridgeThe Feeling That the Time for Doing Something Has Passed12 StrongFire CountryDark MatterThe Big Door PrizeLootAutoeroticCivil WarYour Mother's SonThe Bold and the BeautifulWWE RawCSI: VegasThe First OmenMahal ko ang mahal moTarotThe Daily Show

Announcements

04/22

2024

No

Comments

9-1-1 S07E01 Abandon Ships REPACK 1080p DSNP WEB-DL DDP5 1 H 264-NTb
[RR/NF]
Size: 2.1GB mkv H264 (HIGH) / EAC3  HD  1920x1080

9-1-1
File Information
[img]http://lookpic.com/cdn/i2/t/0422202401191923-1.jpg[/img]
[img]http://lookpic.com/cdn/i2/t/0422202401191923-2.jpg[/img]
[img]http://lookpic.com/cdn/i2/t/0422202401191923-3.jpg[/img]

General
Unique ID                                : 285824645623897269858683325390071857825 (0xD707D30AE6C7679A3BB844E9518502A1)
Complete name                            : 9-1-1 S07E01 Abandon Ships REPACK 1080p DSNP WEB-DL DDP5 1 H 264-NTb.mkv
Format                                   : Matroska
Format version                           : Version 4
File size                                : 2.06 GiB
Duration                                 : 43 min 5 s
Overall bit rate mode                    : Variable
Overall bit rate                         : 6 837 kb/s
Frame rate                               : 23.976 FPS
Writing application                      : mkvmerge v81.0 ('Milliontown') 64-bit
Writing library                          : libebml v1.4.4 + libmatroska v1.7.1

Video
ID                                       : 1
Format                                   : AVC
Format/Info                              : Advanced Video Codec
Format profile                           : High@L4
Format settings                          : CABAC / 4 Ref Frames
Format settings, CABAC                   : Yes
Format settings, Reference frames        : 4 frames
Codec ID                                 : V_MPEG4/ISO/AVC
Duration                                 : 43 min 5 s
Bit rate mode                            : Variable
Bit rate                                 : 6 192 kb/s
Maximum bit rate                         : 12.7 Mb/s
Width                                    : 1 920 pixels
Height                                   : 1 080 pixels
Display aspect ratio                     : 16:9
Frame rate mode                          : Constant
Frame rate                               : 23.976 (24000/1001) FPS
Color space                              : YUV
Chroma subsampling                       : 4:2:0
Bit depth                                : 8 bits
Scan type                                : Progressive
Bits/(Pixel*Frame)                       : 0.125
Time code of first frame                 : 00:00:00:0000000000
Stream size                              : 1.86 GiB (91%)
Default                                  : Yes
Forced                                   : No
Color range                              : Limited
Color primaries                          : BT.709
Transfer characteristics                 : BT.709
Matrix coefficients                      : BT.709

Audio
ID                                       : 2
Format                                   : E-AC-3
Format/Info                              : Enhanced AC-3
Commercial name                          : Dolby Digital Plus
Codec ID                                 : A_EAC3
Duration                                 : 43 min 5 s
Bit rate mode                            : Constant
Bit rate                                 : 640 kb/s
Channel(s)                               : 6 channels
Channel layout                           : L R C LFE Ls Rs
Sampling rate                            : 48.0 kHz
Frame rate                               : 31.250 FPS (1536 SPF)
Compression mode                         : Lossy
Stream size                              : 197 MiB (9%)
Language                                 : English
Service kind                             : Complete Main
Default                                  : Yes
Forced                                   : No

Text #1
ID                                       : 3
Format                                   : UTF-8
Codec ID                                 : S_TEXT/UTF8
Codec ID/Info                            : UTF-8 Plain Text
Duration                                 : 42 min 17 s
Bit rate                                 : 96 b/s
Frame rate                               : 0.320 FPS
Count of elements                        : 811
Stream size                              : 30.0 KiB (0%)
Language                                 : English
Default                                  : No
Forced                                   : No

Text #2
ID                                       : 4
Format                                   : UTF-8
Codec ID                                 : S_TEXT/UTF8
Codec ID/Info                            : UTF-8 Plain Text
Duration                                 : 42 min 17 s
Bit rate                                 : 103 b/s
Frame rate                               : 0.335 FPS
Count of elements                        : 849
Stream size                              : 32.2 KiB (0%)
Title                                    : SDH
Language                                 : English
Default                                  : No
Forced                                   : No

Text #3
ID                                       : 5
Format                                   : UTF-8
Codec ID                                 : S_TEXT/UTF8
Codec ID/Info                            : UTF-8 Plain Text
Duration                                 : 42 min 51 s
Bit rate                                 : 80 b/s
Frame rate                               : 0.309 FPS
Count of elements                        : 794
Stream size                              : 25.4 KiB (0%)
Language                                 : Czech
Default                                  : No
Forced                                   : No

Text #4
ID                                       : 6
Format                                   : UTF-8
Codec ID                                 : S_TEXT/UTF8
Codec ID/Info                            : UTF-8 Plain Text
Duration                                 : 42 min 51 s
Bit rate                                 : 78 b/s
Frame rate                               : 0.221 FPS
Count of elements                        : 569
Stream size                              : 24.7 KiB (0%)
Language                                 : Danish
Default                                  : No
Forced                                   : No

Text #5
ID                                       : 7
Format                                   : UTF-8
Codec ID                                 : S_TEXT/UTF8
Codec ID/Info                            : UTF-8 Plain Text
Duration                                 : 42 min 51 s
Bit rate                                 : 80 b/s
Frame rate                               : 0.296 FPS
Count of elements                        : 762
Stream size                              : 25.4 KiB (0%)
Title                                    : Spanish (Latin America)
Language                                 : Spanish (Latin America)
Default                                  : No
Forced                                   : No

Text #6
ID                                       : 8
Format                                   : UTF-8
Codec ID                                 : S_TEXT/UTF8
Codec ID/Info                            : UTF-8 Plain Text
Duration                                 : 42 min 51 s
Bit rate                                 : 83 b/s
Frame rate                               : 0.281 FPS
Count of elements                        : 723
Stream size                              : 26.1 KiB (0%)
Title                                    : Spanish (Spain)
Language                                 : Spanish (ES)
Default                                  : No
Forced                                   : No

Text #7
ID                                       : 9
Format                                   : UTF-8
Codec ID                                 : S_TEXT/UTF8
Codec ID/Info                            : UTF-8 Plain Text
Duration                                 : 42 min 51 s
Bit rate                                 : 78 b/s
Frame rate                               : 0.314 FPS
Count of elements                        : 807
Stream size                              : 24.5 KiB (0%)
Language                                 : French (FR)
Default                                  : No
Forced                                   : No

Text #8
ID                                       : 10
Format                                   : UTF-8
Codec ID                                 : S_TEXT/UTF8
Codec ID/Info                            : UTF-8 Plain Text
Duration                                 : 42 min 51 s
Bit rate                                 : 89 b/s
Frame rate                               : 0.288 FPS
Count of elements                        : 740
Stream size                              : 28.1 KiB (0%)
Language                                 : Hungarian
Default                                  : No
Forced                                   : No

Text #9
ID                                       : 11
Format                                   : UTF-8
Codec ID                                 : S_TEXT/UTF8
Codec ID/Info                            : UTF-8 Plain Text
Duration                                 : 42 min 51 s
Bit rate                                 : 82 b/s
Frame rate                               : 0.309 FPS
Count of elements                        : 794
Stream size                              : 26.0 KiB (0%)
Language                                 : Italian
Default                                  : No
Forced                                   : No

Text #10
ID                                       : 12
Format                                   : UTF-8
Codec ID                                 : S_TEXT/UTF8
Codec ID/Info                            : UTF-8 Plain Text
Duration                                 : 42 min 49 s
Bit rate                                 : 71 b/s
Frame rate                               : 0.303 FPS
Count of elements                        : 778
Stream size                              : 22.3 KiB (0%)
Language                                 : Japanese
Default                                  : No
Forced                                   : No

Text #11
ID                                       : 13
Format                                   : UTF-8
Codec ID                                 : S_TEXT/UTF8
Codec ID/Info                            : UTF-8 Plain Text
Duration                                 : 42 min 51 s
Bit rate                                 : 102 b/s
Frame rate                               : 0.316 FPS
Count of elements                        : 812
Stream size                              : 32.1 KiB (0%)
Language                                 : Korean
Default                                  : No
Forced                                   : No

Text #12
ID                                       : 14
Format                                   : UTF-8
Codec ID                                 : S_TEXT/UTF8
Codec ID/Info                            : UTF-8 Plain Text
Duration                                 : 42 min 51 s
Bit rate                                 : 82 b/s
Frame rate                               : 0.286 FPS
Count of elements                        : 736
Stream size                              : 25.9 KiB (0%)
Language                                 : Norwegian
Default                                  : No
Forced                                   : No

Text #13
ID                                       : 15
Format                                   : UTF-8
Codec ID                                 : S_TEXT/UTF8
Codec ID/Info                            : UTF-8 Plain Text
Duration                                 : 42 min 51 s
Bit rate                                 : 82 b/s
Frame rate                               : 0.295 FPS
Count of elements                        : 759
Stream size                              : 25.9 KiB (0%)
Language                                 : Portuguese (BR)
Default                                  : No
Forced                                   : No

Text #14
ID                                       : 16
Format                                   : UTF-8
Codec ID                                 : S_TEXT/UTF8
Codec ID/Info                            : UTF-8 Plain Text
Duration                                 : 42 min 51 s
Bit rate                                 : 82 b/s
Frame rate                               : 0.241 FPS
Count of elements                        : 620
Stream size                              : 25.9 KiB (0%)
Language                                 : Romanian
Default                                  : No
Forced                                   : No

Text #15
ID                                       : 17
Format                                   : UTF-8
Codec ID                                 : S_TEXT/UTF8
Codec ID/Info                            : UTF-8 Plain Text
Duration                                 : 42 min 51 s
Bit rate                                 : 79 b/s
Frame rate                               : 0.304 FPS
Count of elements                        : 782
Stream size                              : 25.0 KiB (0%)
Language                                 : Slovak
Default                                  : No
Forced                                   : No

Text #16
ID                                       : 18
Format                                   : UTF-8
Codec ID                                 : S_TEXT/UTF8
Codec ID/Info                            : UTF-8 Plain Text
Duration                                 : 42 min 51 s
Bit rate                                 : 81 b/s
Frame rate                               : 0.256 FPS
Count of elements                        : 658
Stream size                              : 25.6 KiB (0%)
Language                                 : Swedish
Default                                  : No
Forced                                   : No

Text #17
ID                                       : 19
Format                                   : UTF-8
Codec ID                                 : S_TEXT/UTF8
Codec ID/Info                            : UTF-8 Plain Text
Duration                                 : 42 min 51 s
Bit rate                                 : 93 b/s
Frame rate                               : 0.315 FPS
Count of elements                        : 810
Stream size                              : 29.3 KiB (0%)
Language                                 : Turkish
Default                                  : No
Forced                                   : No

Text #18
ID                                       : 20
Format                                   : UTF-8
Codec ID                                 : S_TEXT/UTF8
Codec ID/Info                            : UTF-8 Plain Text
Duration                                 : 42 min 51 s
Bit rate                                 : 74 b/s
Frame rate                               : 0.316 FPS
Count of elements                        : 812
Stream size                              : 23.5 KiB (0%)
Language                                 : Chinese (Traditional)
Default                                  : No
Forced                                   : No



Download
File Container: MKV
Video/Audio Codec: H264 (HIGH) EAC3
Video Resolution: 1920x1080
Please Login to post a comment.
If you don't have any account, please Register.
  • Subscribe my Feeds
  • Facebook
Encoding Queue:  x264  x265

Latest Episodes

Popular Movies and TV Shows

  • MacGyver
  • The Fall Guy
  • WWE NXT
  • Colors of Evil: Red
  • Panchayat
  • Elizabethan Express
  • Furiosa: A Mad Max Saga
  • MasterChef Australia
  • Under the Bridge
  • The Feeling That the Time for Doing Something Has Passed
  • 12 Strong
  • Fire Country
  • Dark Matter
  • The Big Door Prize
  • Loot
  • Autoerotic
  • Civil War
  • Your Mother's Son
  • The Bold and the Beautiful
  • WWE Raw
  • CSI: Vegas
  • The First Omen
  • Mahal ko ang mahal mo
  • Tarot
  • The Daily Show

Recent Comments

  • Bionicone: Yea this is not the Bluray version. This is another Cam. This thing should be taken down. Do not dow...
  • spiderspinner: Bud:The same thing started happening to me last night and I've used four different browsers yet they...
  • timt:

    Junk, CAM

  • upx:

    WARNING:This is NOT a BluRay rip. It's a CAMrip.

  • Bud: Is clicknupload borked for anyone else now, or is it just me? In recent months it's only worked in...
  • mentalityx:

    Rad bloke!

  • waanaabe: I hope someone follows through with the rest! also, did not check every post but hoping future ones ...
  • Demonz:

    Holy popups ClickNupload

  • rambaldi70:

    this release sort cut! 1h33m12 !
    imdb - 1h 54m

  • rambaldi70: This release the first bad source 1h33m12 - stop the play this release sort cut! 1h33m12 ! imdb - 1h...
  • rambaldi70:

    this release sort cut! 1h33m12 !
    imdb - 1h 54m

  • dilliboy: Will we ever see these RMTeam releases ever again? I hope they're not lost to the digital graveyard ...
  • kang:

    NitroFlare's link is missing...

  • kang:

    NitroFlare's link is missing...

  • tchamast:

    @Wrapt

    I've seen that too, don't know why.

  • Rafi85: Hi thx for the 14th season. Is it possible to reupload some episodes plz they were removed. These ar...
  • KubrickFan:

    Any possibility of a fresh link for this?

  • GubeShitemon: This is a different movie to the artwork version. Not the Dylan McDermott film but the Ben Affleck f...
  • drorsabi1:

    @admin
    Please add "My Adventures With Superman Season 2 "

  • Wrapt: Hahahaha yeah right make a liar out of me but I was referring to comments made about a movie or an e...

Archives