Sign Up   |   Sign In  
WWE Smackdown!The AbyssCreed IIIArgylleBeyond ParadiseLaw & Order: Organized CrimeLaw & Order Toronto: Criminal IntentYoung SheldonMan on FireThe UntouchablesThe Greatest HitsFalloutDamagedSugarLaRoy, TexasFranklinFour Souls of CoyoteElsbethA Gentleman in MoscowGhostsParachute10 LivesUntitled Woody WoodpeckerStar Trek: DiscoveryFBI

Announcements

03/30

2024

1

Comments

9-1-1 S07E03 Capsized 720p AMZN WEB-DL DDP5 1 H 264-FLUX
[RR/NF/CU]
Size: 1.3GB mkv H264 (HIGH) / EAC3  HD  1280x720

9-1-1
File Information
[img]http://lookpic.com/cdn/i2/t/0330202415101364-1.jpg[/img]
[img]http://lookpic.com/cdn/i2/t/0330202415101364-2.jpg[/img]
[img]http://lookpic.com/cdn/i2/t/0330202415101364-3.jpg[/img]

General
Unique ID                                : 122812398845004640540704069339381011478 (0x5C64CEC200F5AFE4BB8C1D3EE9FC9416)
Complete name                            : 9-1-1 S07E03 Capsized 720p AMZN WEB-DL DDP5 1 H 264-FLUX.mkv
Format                                   : Matroska
Format version                           : Version 4
File size                                : 1.30 GiB
Duration                                 : 43 min 35 s
Overall bit rate                         : 4 256 kb/s
Frame rate                               : 23.976 FPS
Writing application                      : mkvmerge v82.0 ('I'm The President') 64-bit
Writing library                          : libebml v1.4.5 + libmatroska v1.7.1

Video
ID                                       : 1
Format                                   : AVC
Format/Info                              : Advanced Video Codec
Format profile                           : High@L3.1
Format settings                          : CABAC / 4 Ref Frames
Format settings, CABAC                   : Yes
Format settings, Reference frames        : 4 frames
Codec ID                                 : V_MPEG4/ISO/AVC
Duration                                 : 43 min 35 s
Bit rate mode                            : Constant
Bit rate                                 : 3 614 kb/s
Nominal bit rate                         : 6 000 kb/s
Width                                    : 1 280 pixels
Height                                   : 720 pixels
Display aspect ratio                     : 16:9
Frame rate mode                          : Constant
Frame rate                               : 23.976 (24000/1001) FPS
Color space                              : YUV
Chroma subsampling                       : 4:2:0
Bit depth                                : 8 bits
Scan type                                : Progressive
Bits/(Pixel*Frame)                       : 0.164
Stream size                              : 1.10 GiB (85%)
Language                                 : English (US)
Default                                  : Yes
Forced                                   : No
Color range                              : Limited
Color primaries                          : BT.709
Transfer characteristics                 : BT.709
Matrix coefficients                      : BT.709

Audio
ID                                       : 2
Format                                   : E-AC-3
Format/Info                              : Enhanced AC-3
Commercial name                          : Dolby Digital Plus
Codec ID                                 : A_EAC3
Duration                                 : 43 min 35 s
Bit rate mode                            : Constant
Bit rate                                 : 640 kb/s
Channel(s)                               : 6 channels
Channel layout                           : L R C LFE Ls Rs
Sampling rate                            : 48.0 kHz
Frame rate                               : 31.250 FPS (1536 SPF)
Compression mode                         : Lossy
Stream size                              : 200 MiB (15%)
Language                                 : English
Service kind                             : Complete Main
Default                                  : Yes
Forced                                   : No

Text #1
ID                                       : 3
Format                                   : UTF-8
Codec ID                                 : S_TEXT/UTF8
Codec ID/Info                            : UTF-8 Plain Text
Duration                                 : 42 min 49 s
Bit rate                                 : 77 b/s
Frame rate                               : 0.325 FPS
Count of elements                        : 834
Stream size                              : 24.3 KiB (0%)
Language                                 : English (US)
Default                                  : No
Forced                                   : No

Text #2
ID                                       : 4
Format                                   : UTF-8
Codec ID                                 : S_TEXT/UTF8
Codec ID/Info                            : UTF-8 Plain Text
Duration                                 : 42 min 51 s
Bit rate                                 : 87 b/s
Frame rate                               : 0.362 FPS
Count of elements                        : 932
Stream size                              : 27.5 KiB (0%)
Title                                    : SDH
Language                                 : English (US)
Default                                  : No
Forced                                   : No

Text #3
ID                                       : 5
Format                                   : UTF-8
Codec ID                                 : S_TEXT/UTF8
Codec ID/Info                            : UTF-8 Plain Text
Duration                                 : 43 min 22 s
Bit rate                                 : 66 b/s
Frame rate                               : 0.253 FPS
Count of elements                        : 659
Stream size                              : 21.0 KiB (0%)
Language                                 : German (DE)
Default                                  : No
Forced                                   : No

Menu
00:00:00.000                             : en:Scene 1
00:42:56.000                             : en:End Credits



Download
File Container: MKV
Video/Audio Codec: H264 (HIGH) EAC3
Video Resolution: 1280x720

1 Response to "[RR/NF/CU] 9-1-1 S07E03 Capsized 720p AMZN WEB-DL DDP5 1 H 264-FLUX (1.3GB)"
03/30/24
18:50:58
ReadyPlayerOne

Thank you!

Please Login to post a comment.
If you don't have any account, please Register.
  • Subscribe my Feeds
  • Facebook
Encoding Queue:  x264  x265

Latest Episodes

Popular Movies and TV Shows

  • WWE Smackdown!
  • The Abyss
  • Creed III
  • Argylle
  • Beyond Paradise
  • Law & Order: Organized Crime
  • Law & Order Toronto: Criminal Intent
  • Young Sheldon
  • Man on Fire
  • The Untouchables
  • The Greatest Hits
  • Fallout
  • Damaged
  • Sugar
  • LaRoy, Texas
  • Franklin
  • Four Souls of Coyote
  • Elsbeth
  • A Gentleman in Moscow
  • Ghosts
  • Parachute
  • 10 Lives
  • Untitled Woody Woodpecker
  • Star Trek: Discovery
  • FBI

Recent Comments

  • theahtisham:

    Kindly upload Ep. 3 and 4 as well.

  • Kudzu: Update on sound issue, File's codec info says stereo but is only a the left channel If I switch i...
  • Admin:

    kang
    Getting error while encoding, sorry

  • rambaldi70:

    sorry this release ok.
    but descripton is bad
    (Duration: 2h56m7s)

  • mentalityx:

    Thx bloke.

  • Cinemoan: I've been getting the same error message as budo here - There's no rhyme or reason to when it pops u...

Archives