Sign Up   |   Sign In  
The Young OffendersRebusFBI: Most WantedAtlasWWE Smackdown!Knox Goes Away5lbs of PressureCivil WarThe RookieSouth ParkDoctor WhoFuriosa: A Mad Max SagaPrint It BlackWWE NXTStar Trek: DiscoverySurvivorThe Fall GuySouth Park: The End of ObesityHalf Baked: Totally HighThe Daily ShowBlue BloodsElsbethThe Beach BoysAmerican StarGodzilla x Kong: The New Empire

Announcements

04/12

2024

1

Comments

A Gentleman in Moscow S01E03 The Last Rostov 1080p AMZN WEB-DL DDP5 1 H 264-FLUX
[RR/NF]
Size: 3.3GB mkv H264 (HIGH) / EAC3  HD  1920x1080

A Gentleman in Moscow
File Information
[img]http://lookpic.com/cdn/i2/t/0412202407041118-1.jpg[/img]
[img]http://lookpic.com/cdn/i2/t/0412202407041118-2.jpg[/img]
[img]http://lookpic.com/cdn/i2/t/0412202407041118-3.jpg[/img]

General
Unique ID                                : 72079716698083725111098370289965622747 (0x363A0C69001997D51C792B63C05665DB)
Complete name                            : A Gentleman in Moscow S01E03 The Last Rostov 1080p AMZN WEB-DL DDP5 1 H 264-FLUX.mkv
Format                                   : Matroska
Format version                           : Version 4
File size                                : 3.31 GiB
Duration                                 : 47 min 28 s
Overall bit rate                         : 9 980 kb/s
Frame rate                               : 23.976 FPS
Writing application                      : mkvmerge v81.0 ('Milliontown') 64-bit
Writing library                          : libebml v1.4.4 + libmatroska v1.7.1

Video
ID                                       : 1
Format                                   : AVC
Format/Info                              : Advanced Video Codec
Format profile                           : High@L4
Format settings                          : CABAC / 4 Ref Frames
Format settings, CABAC                   : Yes
Format settings, Reference frames        : 4 frames
Codec ID                                 : V_MPEG4/ISO/AVC
Duration                                 : 47 min 28 s
Bit rate mode                            : Constant
Bit rate                                 : 9 338 kb/s
Nominal bit rate                         : 10 000 kb/s
Width                                    : 1 920 pixels
Height                                   : 1 080 pixels
Display aspect ratio                     : 16:9
Frame rate mode                          : Constant
Frame rate                               : 23.976 (24000/1001) FPS
Color space                              : YUV
Chroma subsampling                       : 4:2:0
Bit depth                                : 8 bits
Scan type                                : Progressive
Bits/(Pixel*Frame)                       : 0.188
Stream size                              : 3.10 GiB (94%)
Language                                 : English (US)
Default                                  : Yes
Forced                                   : No
Color range                              : Limited
Color primaries                          : BT.709
Transfer characteristics                 : BT.709
Matrix coefficients                      : BT.709

Audio
ID                                       : 2
Format                                   : E-AC-3
Format/Info                              : Enhanced AC-3
Commercial name                          : Dolby Digital Plus
Codec ID                                 : A_EAC3
Duration                                 : 47 min 28 s
Bit rate mode                            : Constant
Bit rate                                 : 640 kb/s
Channel(s)                               : 6 channels
Channel layout                           : L R C LFE Ls Rs
Sampling rate                            : 48.0 kHz
Frame rate                               : 31.250 FPS (1536 SPF)
Compression mode                         : Lossy
Stream size                              : 217 MiB (6%)
Language                                 : English (US)
Service kind                             : Complete Main
Default                                  : Yes
Forced                                   : No

Text #1
ID                                       : 3
Format                                   : UTF-8
Codec ID                                 : S_TEXT/UTF8
Codec ID/Info                            : UTF-8 Plain Text
Duration                                 : 46 min 25 s
Bit rate                                 : 59 b/s
Frame rate                               : 0.237 FPS
Count of elements                        : 661
Stream size                              : 20.3 KiB (0%)
Language                                 : English (US)
Default                                  : No
Forced                                   : No

Text #2
ID                                       : 4
Format                                   : UTF-8
Codec ID                                 : S_TEXT/UTF8
Codec ID/Info                            : UTF-8 Plain Text
Duration                                 : 47 min 24 s
Bit rate                                 : 63 b/s
Frame rate                               : 0.260 FPS
Count of elements                        : 740
Stream size                              : 22.2 KiB (0%)
Title                                    : SDH
Language                                 : English (US)
Default                                  : No
Forced                                   : No

Menu
00:00:00.000                             : en:Scene 1
00:00:05.000                             : en:Recap
00:00:51.000                             : en:Scene 2
00:02:23.000                             : en:Intro
00:03:18.000                             : en:Scene 3
00:46:28.000                             : en:End Credits



Download
File Container: MKV
Video/Audio Codec: H264 (HIGH) EAC3
Video Resolution: 1920x1080

1 Response to "[RR/NF] A Gentleman in Moscow S01E03 The Last Rostov 1080p AMZN WEB-DL DDP5 1 H 264-FLUX (3.3GB)"
04/12/24
09:47:51
ReadyPlayerOne

Thank You

Please Login to post a comment.
If you don't have any account, please Register.
  • Subscribe my Feeds
  • Facebook
Encoding Queue:  x264  x265

Latest Episodes

Popular Movies and TV Shows

  • The Young Offenders
  • Rebus
  • FBI: Most Wanted
  • Atlas
  • WWE Smackdown!
  • Knox Goes Away
  • 5lbs of Pressure
  • Civil War
  • The Rookie
  • South Park
  • Doctor Who
  • Furiosa: A Mad Max Saga
  • Print It Black
  • WWE NXT
  • Star Trek: Discovery
  • Survivor
  • The Fall Guy
  • South Park: The End of Obesity
  • Half Baked: Totally High
  • The Daily Show
  • Blue Bloods
  • Elsbeth
  • The Beach Boys
  • American Star
  • Godzilla x Kong: The New Empire

Recent Comments

  • Wrapt: Hahahaha yeah right make a liar out of me but I was referring to comments made about a movie or an e...
  • Wrapt: Comments are not always appearing in the Recent Comments list after submitting a comment any reason ...
  • waanaabe:

    warning: speaks German Swedish and French for those without English subs...

  • spiker1961:

    The audio on this is a commentary track, not the actual film audio.

  • spiker1961:

    The audio on this is a commentary track, not the film audio.

  • DuranDuran: The MS PAT show - - Does anyone have BOTH the MS PAT show (SEASON 4) & (SEASON 3) that just cam...
  • newuser:

    need english subtitles

  • Demonz:

    WTH is this

    NO season info and parts 1-13

  • meyat74:

    please add if possible new episodes 5-6

  • DuranDuran: THE MS PAT show = Does anyone have BOTH the MS PAT show (SEASON 3)-and- (SEASON 4) that just came ou...
  • big_ralphie: Just sitting down to watch and, yes there are subtitles...in ITALIAN ONLY. ENGLISH subs might be hel...
  • Geependo:

    All links are dead

  • OldMovies:

    Has Czech subtitles but not English. Need forced English for the foreign language parts.

  • PROFessorMorrynarty: Would it be possible to upload 'Lego masters Australia' Series 6 Episode 6 Please? It's the only one...

Archives