Sign Up   |   Sign In  
Star Trek: DiscoveryChicago FireChicago P.D.ReunionLadies and Gentlemen: The Rolling StonesBreaking PointThe Bold and the BeautifulEvilChicago MedBoy Kills WorldMad GodMan on the TrainFBIThe RookieFBI: Most WantedThe Fall GuyRachel Feinstein: Big GuyPeter Gabriel's Secret WorldDark MatterWill TrentFBI: InternationalMoonedThe Manchurian CandidateVisionsThe Daily Show

Announcements

04/12

2024

1

Comments

A Gentleman in Moscow S01E03 The Last Rostov 720p AMZN WEB-DL DDP5 1 H 264-FLUX
[RR/NF/CU]
Size: 1.4GB mkv H264 (HIGH) / EAC3  HD  1280x720

A Gentleman in Moscow
File Information
[img]http://lookpic.com/cdn/i2/t/0412202407041580-1.jpg[/img]
[img]http://lookpic.com/cdn/i2/t/0412202407041580-2.jpg[/img]
[img]http://lookpic.com/cdn/i2/t/0412202407041580-3.jpg[/img]

General
Unique ID                                : 234052817219309657498134543697587895869 (0xB014EED42DAE62D199249B3FBBA67E3D)
Complete name                            : A Gentleman in Moscow S01E03 The Last Rostov 720p AMZN WEB-DL DDP5 1 H 264-FLUX.mkv
Format                                   : Matroska
Format version                           : Version 4
File size                                : 1.38 GiB
Duration                                 : 47 min 28 s
Overall bit rate                         : 4 160 kb/s
Frame rate                               : 23.976 FPS
Writing application                      : mkvmerge v81.0 ('Milliontown') 64-bit
Writing library                          : libebml v1.4.4 + libmatroska v1.7.1

Video
ID                                       : 1
Format                                   : AVC
Format/Info                              : Advanced Video Codec
Format profile                           : High@L3.1
Format settings                          : CABAC / 4 Ref Frames
Format settings, CABAC                   : Yes
Format settings, Reference frames        : 4 frames
Codec ID                                 : V_MPEG4/ISO/AVC
Duration                                 : 47 min 28 s
Bit rate mode                            : Constant
Bit rate                                 : 3 518 kb/s
Nominal bit rate                         : 4 000 kb/s
Width                                    : 1 280 pixels
Height                                   : 720 pixels
Display aspect ratio                     : 16:9
Frame rate mode                          : Constant
Frame rate                               : 23.976 (24000/1001) FPS
Color space                              : YUV
Chroma subsampling                       : 4:2:0
Bit depth                                : 8 bits
Scan type                                : Progressive
Bits/(Pixel*Frame)                       : 0.159
Stream size                              : 1.17 GiB (85%)
Language                                 : English (US)
Default                                  : Yes
Forced                                   : No
Color range                              : Limited
Color primaries                          : BT.709
Transfer characteristics                 : BT.709
Matrix coefficients                      : BT.709

Audio
ID                                       : 2
Format                                   : E-AC-3
Format/Info                              : Enhanced AC-3
Commercial name                          : Dolby Digital Plus
Codec ID                                 : A_EAC3
Duration                                 : 47 min 28 s
Bit rate mode                            : Constant
Bit rate                                 : 640 kb/s
Channel(s)                               : 6 channels
Channel layout                           : L R C LFE Ls Rs
Sampling rate                            : 48.0 kHz
Frame rate                               : 31.250 FPS (1536 SPF)
Compression mode                         : Lossy
Stream size                              : 217 MiB (15%)
Language                                 : English (US)
Service kind                             : Complete Main
Default                                  : Yes
Forced                                   : No

Text #1
ID                                       : 3
Format                                   : UTF-8
Codec ID                                 : S_TEXT/UTF8
Codec ID/Info                            : UTF-8 Plain Text
Duration                                 : 46 min 25 s
Bit rate                                 : 59 b/s
Frame rate                               : 0.237 FPS
Count of elements                        : 661
Stream size                              : 20.3 KiB (0%)
Language                                 : English (US)
Default                                  : No
Forced                                   : No

Text #2
ID                                       : 4
Format                                   : UTF-8
Codec ID                                 : S_TEXT/UTF8
Codec ID/Info                            : UTF-8 Plain Text
Duration                                 : 47 min 24 s
Bit rate                                 : 63 b/s
Frame rate                               : 0.260 FPS
Count of elements                        : 740
Stream size                              : 22.2 KiB (0%)
Title                                    : SDH
Language                                 : English (US)
Default                                  : No
Forced                                   : No

Menu
00:00:00.000                             : en:Scene 1
00:00:05.000                             : en:Recap
00:00:51.000                             : en:Scene 2
00:02:23.000                             : en:Intro
00:03:18.000                             : en:Scene 3
00:46:28.000                             : en:End Credits



Download
File Container: MKV
Video/Audio Codec: H264 (HIGH) EAC3
Video Resolution: 1280x720

1 Response to "[RR/NF/CU] A Gentleman in Moscow S01E03 The Last Rostov 720p AMZN WEB-DL DDP5 1 H 264-FLUX (1.4GB)"
04/12/24
09:48:49
ReadyPlayerOne

Thank You

Please Login to post a comment.
If you don't have any account, please Register.
  • Subscribe my Feeds
  • Facebook
Encoding Queue:  x264  x265

Latest Episodes

Popular Movies and TV Shows

  • Star Trek: Discovery
  • Chicago Fire
  • Chicago P.D.
  • Reunion
  • Ladies and Gentlemen: The Rolling Stones
  • Breaking Point
  • The Bold and the Beautiful
  • Evil
  • Chicago Med
  • Boy Kills World
  • Mad God
  • Man on the Train
  • FBI
  • The Rookie
  • FBI: Most Wanted
  • The Fall Guy
  • Rachel Feinstein: Big Guy
  • Peter Gabriel's Secret World
  • Dark Matter
  • Will Trent
  • FBI: International
  • Mooned
  • The Manchurian Candidate
  • Visions
  • The Daily Show

Recent Comments

  • big_ralphie: Just sitting down to watch and, yes there are subtitles...in ITALIAN ONLY. ENGLISH subs might be hel...
  • Geependo:

    All links are dead

  • OldMovies:

    Has Czech subtitles but not English. Need forced English for the foreign language parts.

  • PROFessorMorrynarty: Would it be possible to upload 'Lego masters Australia' Series 6 Episode 6 Please? It's the only one...
  • mentalityx:

    Thx mate.

  • Bud: Is the search engine down for everyone, or just me? It just says 'You're forbidden!' whenever I lo...
  • 23d1:

    not episode 4 it is episode 3

  • 23d1:

    not episode 4 it is episode 3

  • 23d1:

    not episode 4 it is episode 3

  • 23d1:

    not episode 4 it is episode 3

Archives