Sign Up   |   Sign In  
Hannah Einbinder: Everything Must GoMILF of NorwayWelcome to WrexhamSistasShrek Forever AfterI Saw the TV GlowThe Bold and the BeautifulThe ChiBratsThe Big CigarNotas sobre un veranoThe Wrong Man: 17 Years Behind BarsWWE NXTThe BoysWalkerAssimilateMower MinionsGoodbye Uncle TomEvilBridgertonCriminal MindsIn the Line of FireLamp LifeThe Artifice GirlThe Daily Show

Announcements

05/17

2024

1

Comments

A Gentleman in Moscow S01E08 Adieu 1080p AMZN WEB-DL DDP5 1 H 264-FLUX
[RR/NF]
Size: 3.1GB mkv H264 (HIGH) / EAC3  HD  1920x1080

A Gentleman in Moscow
File Information
[img]http://lookpic.com/cdn/i2/t/0517202406340611-1.jpg[/img]
[img]http://lookpic.com/cdn/i2/t/0517202406340611-2.jpg[/img]
[img]http://lookpic.com/cdn/i2/t/0517202406340611-3.jpg[/img]

General
Unique ID                                : 155682719762228037513637507440233187356 (0x751F66B3D2892294B967626AF548881C)
Complete name                            : A Gentleman in Moscow S01E08 Adieu 1080p AMZN WEB-DL DDP5 1 H 264-FLUX.mkv
Format                                   : Matroska
Format version                           : Version 4
File size                                : 3.08 GiB
Duration                                 : 47 min 45 s
Overall bit rate                         : 9 221 kb/s
Frame rate                               : 23.976 FPS
Writing application                      : mkvmerge v81.0 ('Milliontown') 64-bit
Writing library                          : libebml v1.4.4 + libmatroska v1.7.1

Video
ID                                       : 1
Format                                   : AVC
Format/Info                              : Advanced Video Codec
Format profile                           : High@L4
Format settings                          : CABAC / 4 Ref Frames
Format settings, CABAC                   : Yes
Format settings, Reference frames        : 4 frames
Codec ID                                 : V_MPEG4/ISO/AVC
Duration                                 : 47 min 45 s
Bit rate mode                            : Constant
Bit rate                                 : 8 579 kb/s
Nominal bit rate                         : 10 000 kb/s
Width                                    : 1 920 pixels
Height                                   : 1 080 pixels
Display aspect ratio                     : 16:9
Frame rate mode                          : Constant
Frame rate                               : 23.976 (24000/1001) FPS
Color space                              : YUV
Chroma subsampling                       : 4:2:0
Bit depth                                : 8 bits
Scan type                                : Progressive
Bits/(Pixel*Frame)                       : 0.173
Stream size                              : 2.86 GiB (93%)
Language                                 : English (US)
Default                                  : Yes
Forced                                   : No
Color range                              : Limited
Color primaries                          : BT.709
Transfer characteristics                 : BT.709
Matrix coefficients                      : BT.709

Audio
ID                                       : 2
Format                                   : E-AC-3
Format/Info                              : Enhanced AC-3
Commercial name                          : Dolby Digital Plus
Codec ID                                 : A_EAC3
Duration                                 : 47 min 45 s
Bit rate mode                            : Constant
Bit rate                                 : 640 kb/s
Channel(s)                               : 6 channels
Channel layout                           : L R C LFE Ls Rs
Sampling rate                            : 48.0 kHz
Frame rate                               : 31.250 FPS (1536 SPF)
Compression mode                         : Lossy
Stream size                              : 219 MiB (7%)
Language                                 : English (US)
Service kind                             : Complete Main
Default                                  : Yes
Forced                                   : No

Text #1
ID                                       : 3
Format                                   : UTF-8
Codec ID                                 : S_TEXT/UTF8
Codec ID/Info                            : UTF-8 Plain Text
Duration                                 : 45 min 51 s
Bit rate                                 : 54 b/s
Frame rate                               : 0.213 FPS
Count of elements                        : 587
Stream size                              : 18.2 KiB (0%)
Language                                 : English (US)
Default                                  : No
Forced                                   : No

Text #2
ID                                       : 4
Format                                   : UTF-8
Codec ID                                 : S_TEXT/UTF8
Codec ID/Info                            : UTF-8 Plain Text
Duration                                 : 47 min 41 s
Bit rate                                 : 58 b/s
Frame rate                               : 0.239 FPS
Count of elements                        : 683
Stream size                              : 20.4 KiB (0%)
Title                                    : SDH
Language                                 : English (US)
Default                                  : No
Forced                                   : No

Menu
00:00:00.000                             : en:Scene 1
00:00:05.000                             : en:Recap
00:00:52.000                             : en:Scene 2
00:46:45.000                             : en:End Credits



Download
File Container: MKV
Video/Audio Codec: H264 (HIGH) EAC3
Video Resolution: 1920x1080

1 Response to "[RR/NF] A Gentleman in Moscow S01E08 Adieu 1080p AMZN WEB-DL DDP5 1 H 264-FLUX (3.1GB)"
05/17/24
07:28:55
ReadyPlayerOne

Thank You

Please Login to post a comment.
If you don't have any account, please Register.
  • Subscribe my Feeds
  • Facebook
Encoding Queue:  x264  x265

Latest Episodes

Popular Movies and TV Shows

  • Hannah Einbinder: Everything Must Go
  • MILF of Norway
  • Welcome to Wrexham
  • Sistas
  • Shrek Forever After
  • I Saw the TV Glow
  • The Bold and the Beautiful
  • The Chi
  • Brats
  • The Big Cigar
  • Notas sobre un verano
  • WWE NXT
  • The Boys
  • Walker
  • Assimilate
  • Mower Minions
  • Goodbye Uncle Tom
  • Evil
  • Bridgerton
  • Criminal Minds
  • In the Line of Fire
  • Lamp Life
  • The Artifice Girl
  • The Daily Show

Recent Comments

Archives