Sign Up   |   Sign In  
House of the DragonNCISReturn to Never LandPalm RoyaleGhostlightRide Along 2Mayor of KingstownMy Adventures with Superman60 MinutesTwo Way StretchCats in the MuseumJack Whitehall: Settle DownWalkerHotel CocaineInterview with the VampireCalamity JaneOctopussyI'll Be FrankWWE NXTThe Loud HouseYoung SheldonDaaaaaali!Kung Fu HustleLicence to KillThe Daily Show

Announcements

05/17

2024

1

Comments

A Gentleman in Moscow S01E08 Adieu 720p AMZN WEB-DL DDP5 1 H 264-FLUX
[RR/NF/CU]
Size: 1.4GB mkv H264 (HIGH) / EAC3  HD  1280x720

A Gentleman in Moscow
File Information
[img]http://lookpic.com/cdn/i2/t/0517202406391342-1.jpg[/img]
[img]http://lookpic.com/cdn/i2/t/0517202406391342-2.jpg[/img]
[img]http://lookpic.com/cdn/i2/t/0517202406391342-3.jpg[/img]

General
Unique ID                                : 192498671538650675308891642112583473483 (0x90D1E5448A8923D6961892727981194B)
Complete name                            : A Gentleman in Moscow S01E08 Adieu 720p AMZN WEB-DL DDP5 1 H 264-FLUX.mkv
Format                                   : Matroska
Format version                           : Version 4
File size                                : 1.37 GiB
Duration                                 : 47 min 45 s
Overall bit rate                         : 4 108 kb/s
Frame rate                               : 23.976 FPS
Writing application                      : mkvmerge v81.0 ('Milliontown') 64-bit
Writing library                          : libebml v1.4.4 + libmatroska v1.7.1

Video
ID                                       : 1
Format                                   : AVC
Format/Info                              : Advanced Video Codec
Format profile                           : High@L3.1
Format settings                          : CABAC / 4 Ref Frames
Format settings, CABAC                   : Yes
Format settings, Reference frames        : 4 frames
Codec ID                                 : V_MPEG4/ISO/AVC
Duration                                 : 47 min 45 s
Bit rate mode                            : Constant
Bit rate                                 : 3 466 kb/s
Nominal bit rate                         : 6 000 kb/s
Width                                    : 1 280 pixels
Height                                   : 720 pixels
Display aspect ratio                     : 16:9
Frame rate mode                          : Constant
Frame rate                               : 23.976 (24000/1001) FPS
Color space                              : YUV
Chroma subsampling                       : 4:2:0
Bit depth                                : 8 bits
Scan type                                : Progressive
Bits/(Pixel*Frame)                       : 0.157
Stream size                              : 1.16 GiB (84%)
Language                                 : English (US)
Default                                  : Yes
Forced                                   : No
Color range                              : Limited
Color primaries                          : BT.709
Transfer characteristics                 : BT.709
Matrix coefficients                      : BT.709

Audio
ID                                       : 2
Format                                   : E-AC-3
Format/Info                              : Enhanced AC-3
Commercial name                          : Dolby Digital Plus
Codec ID                                 : A_EAC3
Duration                                 : 47 min 45 s
Bit rate mode                            : Constant
Bit rate                                 : 640 kb/s
Channel(s)                               : 6 channels
Channel layout                           : L R C LFE Ls Rs
Sampling rate                            : 48.0 kHz
Frame rate                               : 31.250 FPS (1536 SPF)
Compression mode                         : Lossy
Stream size                              : 219 MiB (16%)
Language                                 : English (US)
Service kind                             : Complete Main
Default                                  : Yes
Forced                                   : No

Text #1
ID                                       : 3
Format                                   : UTF-8
Codec ID                                 : S_TEXT/UTF8
Codec ID/Info                            : UTF-8 Plain Text
Duration                                 : 45 min 51 s
Bit rate                                 : 54 b/s
Frame rate                               : 0.213 FPS
Count of elements                        : 587
Stream size                              : 18.2 KiB (0%)
Language                                 : English (US)
Default                                  : No
Forced                                   : No

Text #2
ID                                       : 4
Format                                   : UTF-8
Codec ID                                 : S_TEXT/UTF8
Codec ID/Info                            : UTF-8 Plain Text
Duration                                 : 47 min 41 s
Bit rate                                 : 58 b/s
Frame rate                               : 0.239 FPS
Count of elements                        : 683
Stream size                              : 20.4 KiB (0%)
Title                                    : SDH
Language                                 : English (US)
Default                                  : No
Forced                                   : No

Menu
00:00:00.000                             : en:Scene 1
00:00:05.000                             : en:Recap
00:00:52.000                             : en:Scene 2
00:46:45.000                             : en:End Credits



Download
File Container: MKV
Video/Audio Codec: H264 (HIGH) EAC3
Video Resolution: 1280x720

1 Response to "[RR/NF/CU] A Gentleman in Moscow S01E08 Adieu 720p AMZN WEB-DL DDP5 1 H 264-FLUX (1.4GB)"
05/17/24
07:35:38
ReadyPlayerOne

Thank You

Please Login to post a comment.
If you don't have any account, please Register.
  • Subscribe my Feeds
  • Facebook
Encoding Queue:  x264  x265

Latest Episodes

Popular Movies and TV Shows

  • House of the Dragon
  • NCIS
  • Return to Never Land
  • Palm Royale
  • Ghostlight
  • Ride Along 2
  • Mayor of Kingstown
  • My Adventures with Superman
  • 60 Minutes
  • Two Way Stretch
  • Cats in the Museum
  • Jack Whitehall: Settle Down
  • Walker
  • Hotel Cocaine
  • Interview with the Vampire
  • Calamity Jane
  • Octopussy
  • I'll Be Frank
  • WWE NXT
  • The Loud House
  • Young Sheldon
  • Daaaaaali!
  • Kung Fu Hustle
  • Licence to Kill
  • The Daily Show

Recent Comments

Archives