Sign Up   |   Sign In  
Totally Funny AnimalsDoctor WhoSo Help Me ToddHidden CityNähtamatu võitlus8 Views of Lake BiwaYatagarasu: The Raven Does Not Choose Its MasterS.W.A.T.Fire CountryOne LifeShe Is ConannEasy RiderYoung SheldonBlue BloodsRebusChallengers12.12: The DayAdagioSugarStar Trek: DiscoveryGrey's AnatomyGodzilla x Kong: The New EmpireMothers' InstinctThe DreamersOuter Range

Announcements

04/18

2024

1

Comments

Abbott Elementary S03E10 2 Ava 2 Fest 720p DSNP WEB-DL DDP5 1 H 264-FLUX
[RR/NF/CU]
Size: 596MB mkv H264 (HIGH) / EAC3  HD  1280x720

Abbott Elementary
File Information
[img]http://lookpic.com/cdn/i2/t/0418202411495426-1.jpg[/img]
[img]http://lookpic.com/cdn/i2/t/0418202411495426-2.jpg[/img]
[img]http://lookpic.com/cdn/i2/t/0418202411495426-3.jpg[/img]

General
Unique ID                                : 283791294293682172523225850309709101557 (0xD5803714F738911BFB9B7801796B79F5)
Complete name                            : Abbott Elementary S03E10 2 Ava 2 Fest 720p DSNP WEB-DL DDP5 1 H 264-FLUX.mkv
Format                                   : Matroska
Format version                           : Version 4
File size                                : 597 MiB
Duration                                 : 21 min 31 s
Overall bit rate mode                    : Variable
Overall bit rate                         : 3 875 kb/s
Frame rate                               : 23.976 FPS
Writing application                      : mkvmerge v83.0 ('Circle Of Friends') 64-bit
Writing library                          : libebml v1.4.5 + libmatroska v1.7.1

Video
ID                                       : 1
Format                                   : AVC
Format/Info                              : Advanced Video Codec
Format profile                           : High@L3.1
Format settings                          : CABAC / 4 Ref Frames
Format settings, CABAC                   : Yes
Format settings, Reference frames        : 4 frames
Codec ID                                 : V_MPEG4/ISO/AVC
Duration                                 : 21 min 31 s
Bit rate mode                            : Variable
Bit rate                                 : 3 617 kb/s
Maximum bit rate                         : 6 375 kb/s
Width                                    : 1 280 pixels
Height                                   : 720 pixels
Display aspect ratio                     : 16:9
Frame rate mode                          : Constant
Frame rate                               : 23.976 (24000/1001) FPS
Color space                              : YUV
Chroma subsampling                       : 4:2:0
Bit depth                                : 8 bits
Scan type                                : Progressive
Bits/(Pixel*Frame)                       : 0.164
Time code of first frame                 : 00:00:00:0000000000
Stream size                              : 557 MiB (93%)
Language                                 : English
Default                                  : Yes
Forced                                   : No
Color range                              : Limited
Color primaries                          : BT.709
Transfer characteristics                 : BT.709
Matrix coefficients                      : BT.709

Audio
ID                                       : 2
Format                                   : E-AC-3
Format/Info                              : Enhanced AC-3
Commercial name                          : Dolby Digital Plus
Codec ID                                 : A_EAC3
Duration                                 : 21 min 31 s
Bit rate mode                            : Constant
Bit rate                                 : 256 kb/s
Channel(s)                               : 6 channels
Channel layout                           : L R C LFE Ls Rs
Sampling rate                            : 48.0 kHz
Frame rate                               : 31.250 FPS (1536 SPF)
Compression mode                         : Lossy
Stream size                              : 39.4 MiB (7%)
Language                                 : English
Service kind                             : Complete Main
Default                                  : Yes
Forced                                   : No

Text #1
ID                                       : 3
Format                                   : UTF-8
Codec ID                                 : S_TEXT/UTF8
Codec ID/Info                            : UTF-8 Plain Text
Duration                                 : 21 min 22 s
Bit rate                                 : 110 b/s
Frame rate                               : 0.437 FPS
Count of elements                        : 560
Stream size                              : 17.3 KiB (0%)
Language                                 : English
Default                                  : No
Forced                                   : No

Text #2
ID                                       : 4
Format                                   : UTF-8
Codec ID                                 : S_TEXT/UTF8
Codec ID/Info                            : UTF-8 Plain Text
Duration                                 : 21 min 26 s
Bit rate                                 : 115 b/s
Frame rate                               : 0.453 FPS
Count of elements                        : 583
Stream size                              : 18.1 KiB (0%)
Title                                    : SDH
Language                                 : English
Default                                  : No
Forced                                   : No



Download
File Container: MKV
Video/Audio Codec: H264 (HIGH) EAC3
Video Resolution: 1280x720

1 Response to "[RR/NF/CU] Abbott Elementary S03E10 2 Ava 2 Fest 720p DSNP WEB-DL DDP5 1 H 264-FLUX (596MB)"
04/18/24
13:35:19
ReadyPlayerOne

Thank You

Please Login to post a comment.
If you don't have any account, please Register.
  • Subscribe my Feeds
  • Facebook
Encoding Queue:  x264  x265

Latest Episodes

Popular Movies and TV Shows

  • Totally Funny Animals
  • Doctor Who
  • So Help Me Todd
  • Hidden City
  • Nähtamatu võitlus
  • 8 Views of Lake Biwa
  • Yatagarasu: The Raven Does Not Choose Its Master
  • S.W.A.T.
  • Fire Country
  • One Life
  • She Is Conann
  • Easy Rider
  • Young Sheldon
  • Blue Bloods
  • Rebus
  • Challengers
  • 12.12: The Day
  • Adagio
  • Sugar
  • Star Trek: Discovery
  • Grey's Anatomy
  • Godzilla x Kong: The New Empire
  • Mothers' Instinct
  • The Dreamers
  • Outer Range

Recent Comments

  • 23d1:

    not episode 4 it is episode 3

  • 23d1:

    not episode 4 it is episode 3

  • 23d1:

    not episode 4 it is episode 3

  • 23d1:

    not episode 4 it is episode 3

  • aaroz88:

    Trimas!!

  • mptoo: I don't often ask this, infact this would be the first time, but I don't suppose there is any chance...
  • Cinque_Persson:

    btw:
    quote /quote
    is broken

  • gabrielsyme:

    Sorry but where is the clicknupload link?

  • mike1204:

    Is this episode doomed??? The RMX avi version is only 12 minutes long!!!

  • waanaabe:

    Could PUSHING DAISES kindly be upoaded to CU? THANKS!

  • mentalityx:

    Thx bloke.

Archives