Sign Up   |   Sign In  
Mayor of KingstownBilly the KidStars and RosesConcrete UtopiaGemma & Gorka: Life Behind the LensLove IslandLicence to KillKung Fu HustleLook to the LightOn Patrol: LiveDoctor ClimaxThe Bold and the BeautifulThe Loud HouseWelcome to WrexhamVice News Presents: Mass Shooting AmericaThere's Something About MaryMy Sexual Abuse: The SitcomWWE NXTCatfish: The TV ShowWalkerEnter the Clones of BruceImmaculateInside Out 2The Daily ShowSurvivor

Announcements

05/29

2024

1

Comments

Acapulco 2021 S03E06 Take a Chance on Me 1080p ATVP WEB-DL DDP5 1 H 264-NTb
[RR/NF]
Size: 2.2GB mkv H264 (HIGH) / EAC3  HD  1920x960

Acapulco
File Information
[img]http://lookpic.com/cdn/i2/t/0529202403205895-1.jpg[/img]
[img]http://lookpic.com/cdn/i2/t/0529202403205895-2.jpg[/img]
[img]http://lookpic.com/cdn/i2/t/0529202403205895-3.jpg[/img]

General
Unique ID                                : 5234307820824670730088399945352902270 (0x3F0174CE450DAC4A2C6D9C43ED4767E)
Complete name                            : Acapulco.2021.S03E06.Take.a.Chance.on.Me.1080p.ATVP.WEB-DL.DDP5.1.H.264-NTb.mkv
Format                                   : Matroska
Format version                           : Version 4
File size                                : 2.21 GiB
Duration                                 : 29 min 30 s
Overall bit rate                         : 10.7 Mb/s
Frame rate                               : 23.976 FPS
Writing application                      : mkvmerge v84.0 ('Sleeper') 64-bit
Writing library                          : libebml v1.4.5 + libmatroska v1.7.1

Video
ID                                       : 1
Format                                   : AVC
Format/Info                              : Advanced Video Codec
Format profile                           : High@L4
Format settings                          : CABAC / 4 Ref Frames
Format settings, CABAC                   : Yes
Format settings, Reference frames        : 4 frames
Codec ID                                 : V_MPEG4/ISO/AVC
Duration                                 : 29 min 30 s
Bit rate                                 : 9 928 kb/s
Width                                    : 1 920 pixels
Height                                   : 960 pixels
Display aspect ratio                     : 2.000
Frame rate mode                          : Constant
Frame rate                               : 23.976 (24000/1001) FPS
Color space                              : YUV
Chroma subsampling                       : 4:2:0
Bit depth                                : 8 bits
Scan type                                : Progressive
Bits/(Pixel*Frame)                       : 0.225
Stream size                              : 2.05 GiB (93%)
Default                                  : Yes
Forced                                   : No
Color range                              : Limited
Color primaries                          : BT.709
Transfer characteristics                 : BT.709
Matrix coefficients                      : BT.709

Audio
ID                                       : 2
Format                                   : E-AC-3 JOC
Format/Info                              : Enhanced AC-3 with Joint Object Coding
Commercial name                          : Dolby Digital Plus with Dolby Atmos
Codec ID                                 : A_EAC3
Duration                                 : 29 min 30 s
Bit rate mode                            : Constant
Bit rate                                 : 768 kb/s
Channel(s)                               : 6 channels
Channel layout                           : L R C LFE Ls Rs
Sampling rate                            : 48.0 kHz
Frame rate                               : 31.250 FPS (1536 SPF)
Compression mode                         : Lossy
Stream size                              : 162 MiB (7%)
Language                                 : English
Service kind                             : Complete Main
Default                                  : Yes
Forced                                   : No
Complexity index                         : 16
Number of dynamic objects                : 15
Bed channel count                        : 1 channel
Bed channel configuration                : LFE

Text #1
ID                                       : 3
Format                                   : UTF-8
Codec ID                                 : S_TEXT/UTF8
Codec ID/Info                            : UTF-8 Plain Text
Duration                                 : 26 min 42 s
Bit rate                                 : 30 b/s
Frame rate                               : 0.134 FPS
Count of elements                        : 214
Stream size                              : 6.00 KiB (0%)
Title                                    : Forced
Language                                 : English
Default                                  : Yes
Forced                                   : Yes

Text #2
ID                                       : 4
Format                                   : UTF-8
Codec ID                                 : S_TEXT/UTF8
Codec ID/Info                            : UTF-8 Plain Text
Duration                                 : 27 min 35 s
Bit rate                                 : 93 b/s
Frame rate                               : 0.341 FPS
Count of elements                        : 565
Stream size                              : 19.0 KiB (0%)
Language                                 : English
Default                                  : No
Forced                                   : No

Text #3
ID                                       : 5
Format                                   : UTF-8
Codec ID                                 : S_TEXT/UTF8
Codec ID/Info                            : UTF-8 Plain Text
Duration                                 : 27 min 35 s
Bit rate                                 : 101 b/s
Frame rate                               : 0.361 FPS
Count of elements                        : 597
Stream size                              : 20.4 KiB (0%)
Title                                    : SDH
Language                                 : English
Default                                  : No
Forced                                   : No

Text #4
ID                                       : 6
Format                                   : UTF-8
Codec ID                                 : S_TEXT/UTF8
Codec ID/Info                            : UTF-8 Plain Text
Duration                                 : 28 min 54 s
Bit rate                                 : 125 b/s
Frame rate                               : 0.304 FPS
Count of elements                        : 527
Stream size                              : 26.5 KiB (0%)
Language                                 : Arabic
Default                                  : No
Forced                                   : No

Text #5
ID                                       : 7
Format                                   : UTF-8
Codec ID                                 : S_TEXT/UTF8
Codec ID/Info                            : UTF-8 Plain Text
Duration                                 : 28 min 54 s
Bit rate                                 : 124 b/s
Frame rate                               : 0.232 FPS
Count of elements                        : 403
Stream size                              : 26.3 KiB (0%)
Language                                 : Bulgarian
Default                                  : No
Forced                                   : No

Text #6
ID                                       : 8
Format                                   : UTF-8
Codec ID                                 : S_TEXT/UTF8
Codec ID/Info                            : UTF-8 Plain Text
Duration                                 : 28 min 54 s
Bit rate                                 : 84 b/s
Frame rate                               : 0.304 FPS
Count of elements                        : 527
Stream size                              : 17.9 KiB (0%)
Title                                    : Chinese (Simplified)
Language                                 : Mandarin (Hans)
Default                                  : No
Forced                                   : No

Text #7
ID                                       : 9
Format                                   : UTF-8
Codec ID                                 : S_TEXT/UTF8
Codec ID/Info                            : UTF-8 Plain Text
Duration                                 : 29 min 14 s
Bit rate                                 : 80 b/s
Frame rate                               : 0.301 FPS
Count of elements                        : 529
Stream size                              : 17.3 KiB (0%)
Title                                    : Chinese (Traditional)
Language                                 : Mandarin (Hant)
Default                                  : No
Forced                                   : No

Text #8
ID                                       : 10
Format                                   : UTF-8
Codec ID                                 : S_TEXT/UTF8
Codec ID/Info                            : UTF-8 Plain Text
Duration                                 : 28 min 54 s
Bit rate                                 : 79 b/s
Frame rate                               : 0.280 FPS
Count of elements                        : 486
Stream size                              : 16.9 KiB (0%)
Language                                 : Czech
Default                                  : No
Forced                                   : No

Text #9
ID                                       : 11
Format                                   : UTF-8
Codec ID                                 : S_TEXT/UTF8
Codec ID/Info                            : UTF-8 Plain Text
Duration                                 : 28 min 54 s
Bit rate                                 : 79 b/s
Frame rate                               : 0.229 FPS
Count of elements                        : 397
Stream size                              : 16.9 KiB (0%)
Language                                 : Danish
Default                                  : No
Forced                                   : No

Text #10
ID                                       : 12
Format                                   : UTF-8
Codec ID                                 : S_TEXT/UTF8
Codec ID/Info                            : UTF-8 Plain Text
Duration                                 : 28 min 4 s
Bit rate                                 : 91 b/s
Frame rate                               : 0.242 FPS
Count of elements                        : 408
Stream size                              : 18.8 KiB (0%)
Language                                 : German
Default                                  : No
Forced                                   : No

Text #11
ID                                       : 13
Format                                   : UTF-8
Codec ID                                 : S_TEXT/UTF8
Codec ID/Info                            : UTF-8 Plain Text
Duration                                 : 29 min 14 s
Bit rate                                 : 146 b/s
Frame rate                               : 0.287 FPS
Count of elements                        : 504
Stream size                              : 31.3 KiB (0%)
Language                                 : Greek
Default                                  : No
Forced                                   : No

Text #12
ID                                       : 14
Format                                   : UTF-8
Codec ID                                 : S_TEXT/UTF8
Codec ID/Info                            : UTF-8 Plain Text
Duration                                 : 28 min 54 s
Bit rate                                 : 93 b/s
Frame rate                               : 0.310 FPS
Count of elements                        : 537
Stream size                              : 19.7 KiB (0%)
Title                                    : Spanish (Latin America)
Language                                 : Spanish (Latin America)
Default                                  : No
Forced                                   : No

Text #13
ID                                       : 15
Format                                   : UTF-8
Codec ID                                 : S_TEXT/UTF8
Codec ID/Info                            : UTF-8 Plain Text
Duration                                 : 28 min 54 s
Bit rate                                 : 90 b/s
Frame rate                               : 0.307 FPS
Count of elements                        : 532
Stream size                              : 19.2 KiB (0%)
Title                                    : Spanish (Spain)
Language                                 : Spanish (ES)
Default                                  : No
Forced                                   : No

Text #14
ID                                       : 16
Format                                   : UTF-8
Codec ID                                 : S_TEXT/UTF8
Codec ID/Info                            : UTF-8 Plain Text
Duration                                 : 28 min 54 s
Bit rate                                 : 82 b/s
Frame rate                               : 0.284 FPS
Count of elements                        : 493
Stream size                              : 17.5 KiB (0%)
Language                                 : Estonian
Default                                  : No
Forced                                   : No

Text #15
ID                                       : 17
Format                                   : UTF-8
Codec ID                                 : S_TEXT/UTF8
Codec ID/Info                            : UTF-8 Plain Text
Duration                                 : 28 min 54 s
Bit rate                                 : 81 b/s
Frame rate                               : 0.270 FPS
Count of elements                        : 469
Stream size                              : 17.2 KiB (0%)
Language                                 : Finnish
Default                                  : No
Forced                                   : No

Text #16
ID                                       : 18
Format                                   : UTF-8
Codec ID                                 : S_TEXT/UTF8
Codec ID/Info                            : UTF-8 Plain Text
Duration                                 : 28 min 48 s
Bit rate                                 : 85 b/s
Frame rate                               : 0.331 FPS
Count of elements                        : 572
Stream size                              : 17.9 KiB (0%)
Title                                    : French (Canada)
Language                                 : French (CA)
Default                                  : No
Forced                                   : No

Text #17
ID                                       : 19
Format                                   : UTF-8
Codec ID                                 : S_TEXT/UTF8
Codec ID/Info                            : UTF-8 Plain Text
Duration                                 : 28 min 48 s
Bit rate                                 : 85 b/s
Frame rate                               : 0.331 FPS
Count of elements                        : 572
Stream size                              : 17.9 KiB (0%)
Title                                    : French (France)
Language                                 : French (FR)
Default                                  : No
Forced                                   : No

Text #18
ID                                       : 20
Format                                   : UTF-8
Codec ID                                 : S_TEXT/UTF8
Codec ID/Info                            : UTF-8 Plain Text
Duration                                 : 28 min 54 s
Bit rate                                 : 119 b/s
Frame rate                               : 0.304 FPS
Count of elements                        : 527
Stream size                              : 25.4 KiB (0%)
Language                                 : Hebrew
Default                                  : No
Forced                                   : No

Text #19
ID                                       : 21
Format                                   : UTF-8
Codec ID                                 : S_TEXT/UTF8
Codec ID/Info                            : UTF-8 Plain Text
Duration                                 : 29 min 14 s
Bit rate                                 : 245 b/s
Frame rate                               : 0.301 FPS
Count of elements                        : 529
Stream size                              : 52.6 KiB (0%)
Language                                 : Hindi
Default                                  : No
Forced                                   : No

Text #20
ID                                       : 22
Format                                   : UTF-8
Codec ID                                 : S_TEXT/UTF8
Codec ID/Info                            : UTF-8 Plain Text
Duration                                 : 28 min 54 s
Bit rate                                 : 85 b/s
Frame rate                               : 0.296 FPS
Count of elements                        : 514
Stream size                              : 18.1 KiB (0%)
Language                                 : Hungarian
Default                                  : No
Forced                                   : No

Text #21
ID                                       : 23
Format                                   : UTF-8
Codec ID                                 : S_TEXT/UTF8
Codec ID/Info                            : UTF-8 Plain Text
Duration                                 : 28 min 54 s
Bit rate                                 : 86 b/s
Frame rate                               : 0.303 FPS
Count of elements                        : 526
Stream size                              : 18.3 KiB (0%)
Language                                 : Indonesian
Default                                  : No
Forced                                   : No

Text #22
ID                                       : 24
Format                                   : UTF-8
Codec ID                                 : S_TEXT/UTF8
Codec ID/Info                            : UTF-8 Plain Text
Duration                                 : 28 min 42 s
Bit rate                                 : 89 b/s
Frame rate                               : 0.302 FPS
Count of elements                        : 521
Stream size                              : 18.8 KiB (0%)
Language                                 : Italian
Default                                  : No
Forced                                   : No

Text #23
ID                                       : 25
Format                                   : UTF-8
Codec ID                                 : S_TEXT/UTF8
Codec ID/Info                            : UTF-8 Plain Text
Duration                                 : 29 min 20 s
Bit rate                                 : 73 b/s
Frame rate                               : 0.283 FPS
Count of elements                        : 499
Stream size                              : 15.8 KiB (0%)
Language                                 : Japanese
Default                                  : No
Forced                                   : No

Text #24
ID                                       : 26
Format                                   : UTF-8
Codec ID                                 : S_TEXT/UTF8
Codec ID/Info                            : UTF-8 Plain Text
Duration                                 : 29 min 14 s
Bit rate                                 : 88 b/s
Frame rate                               : 0.300 FPS
Count of elements                        : 526
Stream size                              : 18.9 KiB (0%)
Language                                 : Korean
Default                                  : No
Forced                                   : No

Text #25
ID                                       : 27
Format                                   : UTF-8
Codec ID                                 : S_TEXT/UTF8
Codec ID/Info                            : UTF-8 Plain Text
Duration                                 : 28 min 54 s
Bit rate                                 : 88 b/s
Frame rate                               : 0.300 FPS
Count of elements                        : 521
Stream size                              : 18.8 KiB (0%)
Language                                 : Lithuanian
Default                                  : No
Forced                                   : No

Text #26
ID                                       : 28
Format                                   : UTF-8
Codec ID                                 : S_TEXT/UTF8
Codec ID/Info                            : UTF-8 Plain Text
Duration                                 : 28 min 54 s
Bit rate                                 : 90 b/s
Frame rate                               : 0.303 FPS
Count of elements                        : 525
Stream size                              : 19.1 KiB (0%)
Language                                 : Latvian
Default                                  : No
Forced                                   : No

Text #27
ID                                       : 29
Format                                   : UTF-8
Codec ID                                 : S_TEXT/UTF8
Codec ID/Info                            : UTF-8 Plain Text
Duration                                 : 28 min 54 s
Bit rate                                 : 85 b/s
Frame rate                               : 0.302 FPS
Count of elements                        : 524
Stream size                              : 18.1 KiB (0%)
Language                                 : Malay
Default                                  : No
Forced                                   : No

Text #28
ID                                       : 30
Format                                   : UTF-8
Codec ID                                 : S_TEXT/UTF8
Codec ID/Info                            : UTF-8 Plain Text
Duration                                 : 28 min 54 s
Bit rate                                 : 81 b/s
Frame rate                               : 0.232 FPS
Count of elements                        : 403
Stream size                              : 17.3 KiB (0%)
Language                                 : Dutch
Default                                  : No
Forced                                   : No

Text #29
ID                                       : 31
Format                                   : UTF-8
Codec ID                                 : S_TEXT/UTF8
Codec ID/Info                            : UTF-8 Plain Text
Duration                                 : 28 min 54 s
Bit rate                                 : 82 b/s
Frame rate                               : 0.228 FPS
Count of elements                        : 395
Stream size                              : 17.5 KiB (0%)
Language                                 : Norwegian
Default                                  : No
Forced                                   : No

Text #30
ID                                       : 32
Format                                   : UTF-8
Codec ID                                 : S_TEXT/UTF8
Codec ID/Info                            : UTF-8 Plain Text
Duration                                 : 28 min 54 s
Bit rate                                 : 85 b/s
Frame rate                               : 0.297 FPS
Count of elements                        : 516
Stream size                              : 18.0 KiB (0%)
Language                                 : Polish
Default                                  : No
Forced                                   : No

Text #31
ID                                       : 33
Format                                   : UTF-8
Codec ID                                 : S_TEXT/UTF8
Codec ID/Info                            : UTF-8 Plain Text
Duration                                 : 28 min 54 s
Bit rate                                 : 91 b/s
Frame rate                               : 0.301 FPS
Count of elements                        : 523
Stream size                              : 19.3 KiB (0%)
Title                                    : Portuguese
Language                                 : Portuguese
Default                                  : No
Forced                                   : No

Text #32
ID                                       : 34
Format                                   : UTF-8
Codec ID                                 : S_TEXT/UTF8
Codec ID/Info                            : UTF-8 Plain Text
Duration                                 : 28 min 54 s
Bit rate                                 : 82 b/s
Frame rate                               : 0.292 FPS
Count of elements                        : 507
Stream size                              : 17.4 KiB (0%)
Title                                    : Portuguese (Brazil)
Language                                 : Portuguese (BR)
Default                                  : No
Forced                                   : No

Text #33
ID                                       : 35
Format                                   : UTF-8
Codec ID                                 : S_TEXT/UTF8
Codec ID/Info                            : UTF-8 Plain Text
Duration                                 : 29 min 14 s
Bit rate                                 : 132 b/s
Frame rate                               : 0.291 FPS
Count of elements                        : 511
Stream size                              : 28.3 KiB (0%)
Language                                 : Russian
Default                                  : No
Forced                                   : No

Text #34
ID                                       : 36
Format                                   : UTF-8
Codec ID                                 : S_TEXT/UTF8
Codec ID/Info                            : UTF-8 Plain Text
Duration                                 : 28 min 54 s
Bit rate                                 : 83 b/s
Frame rate                               : 0.302 FPS
Count of elements                        : 524
Stream size                              : 17.6 KiB (0%)
Language                                 : Slovak
Default                                  : No
Forced                                   : No

Text #35
ID                                       : 37
Format                                   : UTF-8
Codec ID                                 : S_TEXT/UTF8
Codec ID/Info                            : UTF-8 Plain Text
Duration                                 : 28 min 54 s
Bit rate                                 : 69 b/s
Frame rate                               : 0.228 FPS
Count of elements                        : 395
Stream size                              : 14.7 KiB (0%)
Language                                 : Slovenian
Default                                  : No
Forced                                   : No

Text #36
ID                                       : 38
Format                                   : UTF-8
Codec ID                                 : S_TEXT/UTF8
Codec ID/Info                            : UTF-8 Plain Text
Duration                                 : 28 min 54 s
Bit rate                                 : 88 b/s
Frame rate                               : 0.261 FPS
Count of elements                        : 453
Stream size                              : 18.7 KiB (0%)
Language                                 : Swedish
Default                                  : No
Forced                                   : No

Text #37
ID                                       : 39
Format                                   : UTF-8
Codec ID                                 : S_TEXT/UTF8
Codec ID/Info                            : UTF-8 Plain Text
Duration                                 : 28 min 54 s
Bit rate                                 : 286 b/s
Frame rate                               : 0.304 FPS
Count of elements                        : 528
Stream size                              : 60.6 KiB (0%)
Language                                 : Tamil
Default                                  : No
Forced                                   : No

Text #38
ID                                       : 40
Format                                   : UTF-8
Codec ID                                 : S_TEXT/UTF8
Codec ID/Info                            : UTF-8 Plain Text
Duration                                 : 28 min 54 s
Bit rate                                 : 261 b/s
Frame rate                               : 0.304 FPS
Count of elements                        : 528
Stream size                              : 55.3 KiB (0%)
Language                                 : Telugu
Default                                  : No
Forced                                   : No

Text #39
ID                                       : 41
Format                                   : UTF-8
Codec ID                                 : S_TEXT/UTF8
Codec ID/Info                            : UTF-8 Plain Text
Duration                                 : 28 min 54 s
Bit rate                                 : 214 b/s
Frame rate                               : 0.304 FPS
Count of elements                        : 527
Stream size                              : 45.4 KiB (0%)
Language                                 : Thai
Default                                  : No
Forced                                   : No

Text #40
ID                                       : 42
Format                                   : UTF-8
Codec ID                                 : S_TEXT/UTF8
Codec ID/Info                            : UTF-8 Plain Text
Duration                                 : 28 min 54 s
Bit rate                                 : 83 b/s
Frame rate                               : 0.270 FPS
Count of elements                        : 468
Stream size                              : 17.7 KiB (0%)
Language                                 : Turkish
Default                                  : No
Forced                                   : No

Text #41
ID                                       : 43
Format                                   : UTF-8
Codec ID                                 : S_TEXT/UTF8
Codec ID/Info                            : UTF-8 Plain Text
Duration                                 : 29 min 14 s
Bit rate                                 : 135 b/s
Frame rate                               : 0.301 FPS
Count of elements                        : 528
Stream size                              : 29.1 KiB (0%)
Language                                 : Ukrainian
Default                                  : No
Forced                                   : No

Text #42
ID                                       : 44
Format                                   : UTF-8
Codec ID                                 : S_TEXT/UTF8
Codec ID/Info                            : UTF-8 Plain Text
Duration                                 : 28 min 54 s
Bit rate                                 : 113 b/s
Frame rate                               : 0.304 FPS
Count of elements                        : 527
Stream size                              : 24.1 KiB (0%)
Language                                 : Vietnamese
Default                                  : No
Forced                                   : No

Text #43
ID                                       : 45
Format                                   : UTF-8
Codec ID                                 : S_TEXT/UTF8
Codec ID/Info                            : UTF-8 Plain Text
Duration                                 : 29 min 14 s
Bit rate                                 : 69 b/s
Frame rate                               : 0.301 FPS
Count of elements                        : 529
Stream size                              : 14.8 KiB (0%)
Title                                    : Cantonese (Traditional)
Language                                 : Cantonese (Hant)
Default                                  : No
Forced                                   : No



Download
File Container: MKV
Video/Audio Codec: H264 (HIGH) EAC3
Video Resolution: 1920x960

1 Response to "[RR/NF] Acapulco 2021 S03E06 Take a Chance on Me 1080p ATVP WEB-DL DDP5 1 H 264-NTb (2.2GB)"
05/29/24
04:03:59
ReadyPlayerOne

Thank you!

Please Login to post a comment.
If you don't have any account, please Register.
  • Subscribe my Feeds
  • Facebook
Encoding Queue:  x264  x265

Latest Episodes

Popular Movies and TV Shows

  • Mayor of Kingstown
  • Billy the Kid
  • Stars and Roses
  • Concrete Utopia
  • Gemma & Gorka: Life Behind the Lens
  • Love Island
  • Licence to Kill
  • Kung Fu Hustle
  • Look to the Light
  • On Patrol: Live
  • Doctor Climax
  • The Bold and the Beautiful
  • The Loud House
  • Welcome to Wrexham
  • Vice News Presents: Mass Shooting America
  • There's Something About Mary
  • My Sexual Abuse: The Sitcom
  • WWE NXT
  • Catfish: The TV Show
  • Walker
  • Enter the Clones of Bruce
  • Immaculate
  • Inside Out 2
  • The Daily Show
  • Survivor

Recent Comments

Archives