Sign Up   |   Sign In  
Criminal MindsBad DinosaursThe ChiBirdemic 2: The ResurrectionKim's VideoCaptivating the KingThe Loud HousePower Book II: GhostI Saw the TV GlowSpecies IIUltraman: RisingWWE NXTThe BoysThe Bold and the BeautifulThe GrabHannah Einbinder: Everything Must GoMax Dugan ReturnsWalkerSistasWWE RawBratsMower MinionsNotas sobre un veranoThe Daily ShowEvil

Announcements

05/29

2024

1

Comments

Acapulco 2021 S03E06 Take a Chance on Me 720p ATVP WEB-DL DDP5 1 Atmos H 264-FLUX
[RR/NF/CU]
Size: 765MB mkv H264 (HIGH) / EAC3  HD  1356x678

Acapulco
File Information
[img]http://lookpic.com/cdn/i2/t/0529202404253610-1.jpg[/img]
[img]http://lookpic.com/cdn/i2/t/0529202404253610-2.jpg[/img]
[img]http://lookpic.com/cdn/i2/t/0529202404253610-3.jpg[/img]

General
Unique ID                                : 228169825500828177313462080349906816565 (0xABA7E8F16B547C7D7884EE63FBC64E35)
Complete name                            : Acapulco 2021 S03E06 Take a Chance on Me 720p ATVP WEB-DL DDP5 1 Atmos H 264-FLUX.mkv
Format                                   : Matroska
Format version                           : Version 4
File size                                : 766 MiB
Duration                                 : 29 min 30 s
Overall bit rate                         : 3 629 kb/s
Frame rate                               : 23.976 FPS
Writing application                      : mkvmerge v79.0 ('Funeral Pyres') 64-bit
Writing library                          : libebml v1.4.4 + libmatroska v1.7.1

Video
ID                                       : 1
Format                                   : AVC
Format/Info                              : Advanced Video Codec
Format profile                           : High@L3.2
Format settings                          : CABAC / 5 Ref Frames
Format settings, CABAC                   : Yes
Format settings, Reference frames        : 5 frames
Codec ID                                 : V_MPEG4/ISO/AVC
Duration                                 : 29 min 30 s
Bit rate                                 : 2 851 kb/s
Width                                    : 1 356 pixels
Height                                   : 678 pixels
Display aspect ratio                     : 2.000
Frame rate mode                          : Constant
Frame rate                               : 23.976 (24000/1001) FPS
Color space                              : YUV
Chroma subsampling                       : 4:2:0
Bit depth                                : 8 bits
Scan type                                : Progressive
Bits/(Pixel*Frame)                       : 0.129
Stream size                              : 602 MiB (79%)
Language                                 : English
Default                                  : Yes
Forced                                   : No
Color range                              : Limited
Color primaries                          : BT.709
Transfer characteristics                 : BT.709
Matrix coefficients                      : BT.709

Audio
ID                                       : 2
Format                                   : E-AC-3 JOC
Format/Info                              : Enhanced AC-3 with Joint Object Coding
Commercial name                          : Dolby Digital Plus with Dolby Atmos
Codec ID                                 : A_EAC3
Duration                                 : 29 min 30 s
Bit rate mode                            : Constant
Bit rate                                 : 768 kb/s
Channel(s)                               : 6 channels
Channel layout                           : L R C LFE Ls Rs
Sampling rate                            : 48.0 kHz
Frame rate                               : 31.250 FPS (1536 SPF)
Compression mode                         : Lossy
Stream size                              : 162 MiB (21%)
Language                                 : English
Service kind                             : Complete Main
Default                                  : Yes
Forced                                   : No
Complexity index                         : 16
Number of dynamic objects                : 15
Bed channel count                        : 1 channel
Bed channel configuration                : LFE

Text #1
ID                                       : 3
Format                                   : UTF-8
Codec ID                                 : S_TEXT/UTF8
Codec ID/Info                            : UTF-8 Plain Text
Duration                                 : 26 min 42 s
Bit rate                                 : 30 b/s
Frame rate                               : 0.134 FPS
Count of elements                        : 214
Stream size                              : 6.00 KiB (0%)
Title                                    : Forced
Language                                 : English
Default                                  : Yes
Forced                                   : Yes

Text #2
ID                                       : 4
Format                                   : UTF-8
Codec ID                                 : S_TEXT/UTF8
Codec ID/Info                            : UTF-8 Plain Text
Duration                                 : 27 min 35 s
Bit rate                                 : 93 b/s
Frame rate                               : 0.341 FPS
Count of elements                        : 565
Stream size                              : 19.0 KiB (0%)
Language                                 : English
Default                                  : No
Forced                                   : No

Text #3
ID                                       : 5
Format                                   : UTF-8
Codec ID                                 : S_TEXT/UTF8
Codec ID/Info                            : UTF-8 Plain Text
Duration                                 : 27 min 35 s
Bit rate                                 : 101 b/s
Frame rate                               : 0.361 FPS
Count of elements                        : 597
Stream size                              : 20.4 KiB (0%)
Title                                    : SDH
Language                                 : English
Default                                  : No
Forced                                   : No

Text #4
ID                                       : 6
Format                                   : UTF-8
Codec ID                                 : S_TEXT/UTF8
Codec ID/Info                            : UTF-8 Plain Text
Duration                                 : 28 min 54 s
Bit rate                                 : 134 b/s
Frame rate                               : 0.304 FPS
Count of elements                        : 527
Stream size                              : 28.4 KiB (0%)
Language                                 : Arabic
Default                                  : No
Forced                                   : No

Text #5
ID                                       : 7
Format                                   : UTF-8
Codec ID                                 : S_TEXT/UTF8
Codec ID/Info                            : UTF-8 Plain Text
Duration                                 : 28 min 54 s
Bit rate                                 : 124 b/s
Frame rate                               : 0.232 FPS
Count of elements                        : 403
Stream size                              : 26.3 KiB (0%)
Language                                 : Bulgarian
Default                                  : No
Forced                                   : No

Text #6
ID                                       : 8
Format                                   : UTF-8
Codec ID                                 : S_TEXT/UTF8
Codec ID/Info                            : UTF-8 Plain Text
Duration                                 : 28 min 54 s
Bit rate                                 : 84 b/s
Frame rate                               : 0.304 FPS
Count of elements                        : 527
Stream size                              : 17.9 KiB (0%)
Title                                    : Simplified
Language                                 : Chinese (Simplified)
Default                                  : No
Forced                                   : No

Text #7
ID                                       : 9
Format                                   : UTF-8
Codec ID                                 : S_TEXT/UTF8
Codec ID/Info                            : UTF-8 Plain Text
Duration                                 : 29 min 14 s
Bit rate                                 : 80 b/s
Frame rate                               : 0.301 FPS
Count of elements                        : 529
Stream size                              : 17.3 KiB (0%)
Title                                    : Traditional
Language                                 : Chinese (Traditional)
Default                                  : No
Forced                                   : No

Text #8
ID                                       : 10
Format                                   : UTF-8
Codec ID                                 : S_TEXT/UTF8
Codec ID/Info                            : UTF-8 Plain Text
Duration                                 : 28 min 54 s
Bit rate                                 : 79 b/s
Frame rate                               : 0.280 FPS
Count of elements                        : 486
Stream size                              : 16.9 KiB (0%)
Language                                 : Czech
Default                                  : No
Forced                                   : No

Text #9
ID                                       : 11
Format                                   : UTF-8
Codec ID                                 : S_TEXT/UTF8
Codec ID/Info                            : UTF-8 Plain Text
Duration                                 : 28 min 54 s
Bit rate                                 : 79 b/s
Frame rate                               : 0.229 FPS
Count of elements                        : 397
Stream size                              : 16.9 KiB (0%)
Language                                 : Danish
Default                                  : No
Forced                                   : No

Text #10
ID                                       : 12
Format                                   : UTF-8
Codec ID                                 : S_TEXT/UTF8
Codec ID/Info                            : UTF-8 Plain Text
Duration                                 : 28 min 4 s
Bit rate                                 : 91 b/s
Frame rate                               : 0.242 FPS
Count of elements                        : 408
Stream size                              : 18.8 KiB (0%)
Language                                 : German
Default                                  : No
Forced                                   : No

Text #11
ID                                       : 13
Format                                   : UTF-8
Codec ID                                 : S_TEXT/UTF8
Codec ID/Info                            : UTF-8 Plain Text
Duration                                 : 29 min 14 s
Bit rate                                 : 146 b/s
Frame rate                               : 0.287 FPS
Count of elements                        : 504
Stream size                              : 31.3 KiB (0%)
Language                                 : Greek
Default                                  : No
Forced                                   : No

Text #12
ID                                       : 14
Format                                   : UTF-8
Codec ID                                 : S_TEXT/UTF8
Codec ID/Info                            : UTF-8 Plain Text
Duration                                 : 28 min 54 s
Bit rate                                 : 93 b/s
Frame rate                               : 0.310 FPS
Count of elements                        : 537
Stream size                              : 19.7 KiB (0%)
Title                                    : Latin American
Language                                 : Spanish (Latin America)
Default                                  : No
Forced                                   : No

Text #13
ID                                       : 15
Format                                   : UTF-8
Codec ID                                 : S_TEXT/UTF8
Codec ID/Info                            : UTF-8 Plain Text
Duration                                 : 28 min 54 s
Bit rate                                 : 90 b/s
Frame rate                               : 0.307 FPS
Count of elements                        : 532
Stream size                              : 19.2 KiB (0%)
Language                                 : Spanish (ES)
Default                                  : No
Forced                                   : No

Text #14
ID                                       : 16
Format                                   : UTF-8
Codec ID                                 : S_TEXT/UTF8
Codec ID/Info                            : UTF-8 Plain Text
Duration                                 : 28 min 54 s
Bit rate                                 : 82 b/s
Frame rate                               : 0.284 FPS
Count of elements                        : 493
Stream size                              : 17.5 KiB (0%)
Language                                 : Estonian
Default                                  : No
Forced                                   : No

Text #15
ID                                       : 17
Format                                   : UTF-8
Codec ID                                 : S_TEXT/UTF8
Codec ID/Info                            : UTF-8 Plain Text
Duration                                 : 28 min 54 s
Bit rate                                 : 81 b/s
Frame rate                               : 0.270 FPS
Count of elements                        : 469
Stream size                              : 17.2 KiB (0%)
Language                                 : Finnish
Default                                  : No
Forced                                   : No

Text #16
ID                                       : 18
Format                                   : UTF-8
Codec ID                                 : S_TEXT/UTF8
Codec ID/Info                            : UTF-8 Plain Text
Duration                                 : 28 min 48 s
Bit rate                                 : 85 b/s
Frame rate                               : 0.331 FPS
Count of elements                        : 572
Stream size                              : 17.9 KiB (0%)
Title                                    : Canadian
Language                                 : French (CA)
Default                                  : No
Forced                                   : No

Text #17
ID                                       : 19
Format                                   : UTF-8
Codec ID                                 : S_TEXT/UTF8
Codec ID/Info                            : UTF-8 Plain Text
Duration                                 : 28 min 48 s
Bit rate                                 : 85 b/s
Frame rate                               : 0.331 FPS
Count of elements                        : 572
Stream size                              : 17.9 KiB (0%)
Language                                 : French (FR)
Default                                  : No
Forced                                   : No

Text #18
ID                                       : 20
Format                                   : UTF-8
Codec ID                                 : S_TEXT/UTF8
Codec ID/Info                            : UTF-8 Plain Text
Duration                                 : 28 min 54 s
Bit rate                                 : 129 b/s
Frame rate                               : 0.304 FPS
Count of elements                        : 527
Stream size                              : 27.3 KiB (0%)
Language                                 : Hebrew
Default                                  : No
Forced                                   : No

Text #19
ID                                       : 21
Format                                   : UTF-8
Codec ID                                 : S_TEXT/UTF8
Codec ID/Info                            : UTF-8 Plain Text
Duration                                 : 29 min 14 s
Bit rate                                 : 245 b/s
Frame rate                               : 0.301 FPS
Count of elements                        : 529
Stream size                              : 52.6 KiB (0%)
Language                                 : Hindi
Default                                  : No
Forced                                   : No

Text #20
ID                                       : 22
Format                                   : UTF-8
Codec ID                                 : S_TEXT/UTF8
Codec ID/Info                            : UTF-8 Plain Text
Duration                                 : 28 min 54 s
Bit rate                                 : 85 b/s
Frame rate                               : 0.296 FPS
Count of elements                        : 514
Stream size                              : 18.1 KiB (0%)
Language                                 : Hungarian
Default                                  : No
Forced                                   : No

Text #21
ID                                       : 23
Format                                   : UTF-8
Codec ID                                 : S_TEXT/UTF8
Codec ID/Info                            : UTF-8 Plain Text
Duration                                 : 28 min 54 s
Bit rate                                 : 86 b/s
Frame rate                               : 0.303 FPS
Count of elements                        : 526
Stream size                              : 18.3 KiB (0%)
Language                                 : Indonesian
Default                                  : No
Forced                                   : No

Text #22
ID                                       : 24
Format                                   : UTF-8
Codec ID                                 : S_TEXT/UTF8
Codec ID/Info                            : UTF-8 Plain Text
Duration                                 : 28 min 42 s
Bit rate                                 : 89 b/s
Frame rate                               : 0.302 FPS
Count of elements                        : 521
Stream size                              : 18.8 KiB (0%)
Language                                 : Italian
Default                                  : No
Forced                                   : No

Text #23
ID                                       : 25
Format                                   : UTF-8
Codec ID                                 : S_TEXT/UTF8
Codec ID/Info                            : UTF-8 Plain Text
Duration                                 : 29 min 20 s
Bit rate                                 : 73 b/s
Frame rate                               : 0.283 FPS
Count of elements                        : 499
Stream size                              : 15.7 KiB (0%)
Language                                 : Japanese
Default                                  : No
Forced                                   : No

Text #24
ID                                       : 26
Format                                   : UTF-8
Codec ID                                 : S_TEXT/UTF8
Codec ID/Info                            : UTF-8 Plain Text
Duration                                 : 29 min 14 s
Bit rate                                 : 88 b/s
Frame rate                               : 0.300 FPS
Count of elements                        : 526
Stream size                              : 18.9 KiB (0%)
Language                                 : Korean
Default                                  : No
Forced                                   : No

Text #25
ID                                       : 27
Format                                   : UTF-8
Codec ID                                 : S_TEXT/UTF8
Codec ID/Info                            : UTF-8 Plain Text
Duration                                 : 28 min 54 s
Bit rate                                 : 88 b/s
Frame rate                               : 0.300 FPS
Count of elements                        : 521
Stream size                              : 18.8 KiB (0%)
Language                                 : Lithuanian
Default                                  : No
Forced                                   : No

Text #26
ID                                       : 28
Format                                   : UTF-8
Codec ID                                 : S_TEXT/UTF8
Codec ID/Info                            : UTF-8 Plain Text
Duration                                 : 28 min 54 s
Bit rate                                 : 90 b/s
Frame rate                               : 0.303 FPS
Count of elements                        : 525
Stream size                              : 19.1 KiB (0%)
Language                                 : Latvian
Default                                  : No
Forced                                   : No

Text #27
ID                                       : 29
Format                                   : UTF-8
Codec ID                                 : S_TEXT/UTF8
Codec ID/Info                            : UTF-8 Plain Text
Duration                                 : 28 min 54 s
Bit rate                                 : 85 b/s
Frame rate                               : 0.302 FPS
Count of elements                        : 524
Stream size                              : 18.1 KiB (0%)
Language                                 : Malay
Default                                  : No
Forced                                   : No

Text #28
ID                                       : 30
Format                                   : UTF-8
Codec ID                                 : S_TEXT/UTF8
Codec ID/Info                            : UTF-8 Plain Text
Duration                                 : 28 min 54 s
Bit rate                                 : 81 b/s
Frame rate                               : 0.232 FPS
Count of elements                        : 403
Stream size                              : 17.3 KiB (0%)
Language                                 : Dutch
Default                                  : No
Forced                                   : No

Text #29
ID                                       : 31
Format                                   : UTF-8
Codec ID                                 : S_TEXT/UTF8
Codec ID/Info                            : UTF-8 Plain Text
Duration                                 : 28 min 54 s
Bit rate                                 : 82 b/s
Frame rate                               : 0.228 FPS
Count of elements                        : 395
Stream size                              : 17.5 KiB (0%)
Language                                 : Norwegian
Default                                  : No
Forced                                   : No

Text #30
ID                                       : 32
Format                                   : UTF-8
Codec ID                                 : S_TEXT/UTF8
Codec ID/Info                            : UTF-8 Plain Text
Duration                                 : 28 min 54 s
Bit rate                                 : 85 b/s
Frame rate                               : 0.297 FPS
Count of elements                        : 516
Stream size                              : 18.0 KiB (0%)
Language                                 : Polish
Default                                  : No
Forced                                   : No

Text #31
ID                                       : 33
Format                                   : UTF-8
Codec ID                                 : S_TEXT/UTF8
Codec ID/Info                            : UTF-8 Plain Text
Duration                                 : 28 min 54 s
Bit rate                                 : 91 b/s
Frame rate                               : 0.301 FPS
Count of elements                        : 523
Stream size                              : 19.3 KiB (0%)
Language                                 : Portuguese
Default                                  : No
Forced                                   : No

Text #32
ID                                       : 34
Format                                   : UTF-8
Codec ID                                 : S_TEXT/UTF8
Codec ID/Info                            : UTF-8 Plain Text
Duration                                 : 28 min 54 s
Bit rate                                 : 82 b/s
Frame rate                               : 0.292 FPS
Count of elements                        : 507
Stream size                              : 17.4 KiB (0%)
Title                                    : Brazilian
Language                                 : Portuguese (BR)
Default                                  : No
Forced                                   : No

Text #33
ID                                       : 35
Format                                   : UTF-8
Codec ID                                 : S_TEXT/UTF8
Codec ID/Info                            : UTF-8 Plain Text
Duration                                 : 29 min 14 s
Bit rate                                 : 132 b/s
Frame rate                               : 0.291 FPS
Count of elements                        : 511
Stream size                              : 28.3 KiB (0%)
Language                                 : Russian
Default                                  : No
Forced                                   : No

Text #34
ID                                       : 36
Format                                   : UTF-8
Codec ID                                 : S_TEXT/UTF8
Codec ID/Info                            : UTF-8 Plain Text
Duration                                 : 28 min 54 s
Bit rate                                 : 83 b/s
Frame rate                               : 0.302 FPS
Count of elements                        : 524
Stream size                              : 17.6 KiB (0%)
Language                                 : Slovak
Default                                  : No
Forced                                   : No

Text #35
ID                                       : 37
Format                                   : UTF-8
Codec ID                                 : S_TEXT/UTF8
Codec ID/Info                            : UTF-8 Plain Text
Duration                                 : 28 min 54 s
Bit rate                                 : 69 b/s
Frame rate                               : 0.228 FPS
Count of elements                        : 395
Stream size                              : 14.7 KiB (0%)
Language                                 : Slovenian
Default                                  : No
Forced                                   : No

Text #36
ID                                       : 38
Format                                   : UTF-8
Codec ID                                 : S_TEXT/UTF8
Codec ID/Info                            : UTF-8 Plain Text
Duration                                 : 28 min 54 s
Bit rate                                 : 88 b/s
Frame rate                               : 0.261 FPS
Count of elements                        : 453
Stream size                              : 18.7 KiB (0%)
Language                                 : Swedish
Default                                  : No
Forced                                   : No

Text #37
ID                                       : 39
Format                                   : UTF-8
Codec ID                                 : S_TEXT/UTF8
Codec ID/Info                            : UTF-8 Plain Text
Duration                                 : 28 min 54 s
Bit rate                                 : 286 b/s
Frame rate                               : 0.304 FPS
Count of elements                        : 528
Stream size                              : 60.6 KiB (0%)
Language                                 : Tamil
Default                                  : No
Forced                                   : No

Text #38
ID                                       : 40
Format                                   : UTF-8
Codec ID                                 : S_TEXT/UTF8
Codec ID/Info                            : UTF-8 Plain Text
Duration                                 : 28 min 54 s
Bit rate                                 : 261 b/s
Frame rate                               : 0.304 FPS
Count of elements                        : 528
Stream size                              : 55.3 KiB (0%)
Language                                 : Telugu
Default                                  : No
Forced                                   : No

Text #39
ID                                       : 41
Format                                   : UTF-8
Codec ID                                 : S_TEXT/UTF8
Codec ID/Info                            : UTF-8 Plain Text
Duration                                 : 28 min 54 s
Bit rate                                 : 214 b/s
Frame rate                               : 0.304 FPS
Count of elements                        : 527
Stream size                              : 45.4 KiB (0%)
Language                                 : Thai
Default                                  : No
Forced                                   : No

Text #40
ID                                       : 42
Format                                   : UTF-8
Codec ID                                 : S_TEXT/UTF8
Codec ID/Info                            : UTF-8 Plain Text
Duration                                 : 28 min 54 s
Bit rate                                 : 83 b/s
Frame rate                               : 0.270 FPS
Count of elements                        : 468
Stream size                              : 17.7 KiB (0%)
Language                                 : Turkish
Default                                  : No
Forced                                   : No

Text #41
ID                                       : 43
Format                                   : UTF-8
Codec ID                                 : S_TEXT/UTF8
Codec ID/Info                            : UTF-8 Plain Text
Duration                                 : 29 min 14 s
Bit rate                                 : 135 b/s
Frame rate                               : 0.301 FPS
Count of elements                        : 528
Stream size                              : 29.1 KiB (0%)
Language                                 : Ukrainian
Default                                  : No
Forced                                   : No

Text #42
ID                                       : 44
Format                                   : UTF-8
Codec ID                                 : S_TEXT/UTF8
Codec ID/Info                            : UTF-8 Plain Text
Duration                                 : 28 min 54 s
Bit rate                                 : 113 b/s
Frame rate                               : 0.304 FPS
Count of elements                        : 527
Stream size                              : 24.1 KiB (0%)
Language                                 : Vietnamese
Default                                  : No
Forced                                   : No

Text #43
ID                                       : 45
Format                                   : UTF-8
Codec ID                                 : S_TEXT/UTF8
Codec ID/Info                            : UTF-8 Plain Text
Duration                                 : 29 min 14 s
Bit rate                                 : 69 b/s
Frame rate                               : 0.301 FPS
Count of elements                        : 529
Stream size                              : 14.8 KiB (0%)
Title                                    : Traditional
Language                                 : Cantonese (Hant)
Default                                  : No
Forced                                   : No

Menu
00:00:00.000                             : en:Studio Logo
00:00:08.843                             : en:Main
00:28:17.541                             : en:Credits



Download
File Container: MKV
Video/Audio Codec: H264 (HIGH) EAC3
Video Resolution: 1356x678

1 Response to "[RR/NF/CU] Acapulco 2021 S03E06 Take a Chance on Me 720p ATVP WEB-DL DDP5 1 Atmos H 264-FLUX (765MB)"
05/29/24
07:48:20
ReadyPlayerOne

Thank You

Please Login to post a comment.
If you don't have any account, please Register.
  • Subscribe my Feeds
  • Facebook
Encoding Queue:  x264  x265

Latest Episodes

Popular Movies and TV Shows

  • Criminal Minds
  • Bad Dinosaurs
  • The Chi
  • Birdemic 2: The Resurrection
  • Kim's Video
  • Captivating the King
  • The Loud House
  • Power Book II: Ghost
  • I Saw the TV Glow
  • Species II
  • Ultraman: Rising
  • WWE NXT
  • The Boys
  • The Bold and the Beautiful
  • The Grab
  • Hannah Einbinder: Everything Must Go
  • Max Dugan Returns
  • Walker
  • Sistas
  • WWE Raw
  • Brats
  • Mower Minions
  • Notas sobre un verano
  • The Daily Show
  • Evil

Recent Comments

  • waanaabe: Does anyone have season 1 and 2 of "The Mire"? here is just season 3 of this polish series...
  • Rmed:

    Links are dead. Re-upload please?

  • mentalityx:

    Rad bloke.

  • mentalityx:

    Thx bloke.

  • Diggety247:

    BrokenHanded, Try using a DL manager.

  • BrokenHanded: clicknupload does not seem to work for past few days. keep getting an error saying the site is sendi...
  • Bud: Helps if you actually add these to the "Late Night with Seth Meyers" page too...
  • rambaldi70:

    Hy! Right now, my download speed : 1 Mb/s
    this is ok?
    Tx answer

  • Cinque_Persson: At 183 MB this had to be something completely different. In fact it's just the main actors commentin...

Archives