Sign Up   |   Sign In  
Star Trek: DiscoveryThe Good DoctorConcordiaReunionThe Blue AngelsThe Fall GuyEvilChicago FireTiresWater's EdgeCarol Doda Topless at the CondorMad GodChicago P.D.The RookieFBI: Most WantedLadies and Gentlemen: The Rolling StonesBoy Kills WorldAfflictionFBIDark MatterThe Bold and the BeautifulMoonedRachel Feinstein: Big GuyThe Manchurian CandidateThe Daily Show

Announcements

04/15

2024

1

Comments

Beacon 23 S02E02 Purgatory 720p AMZN WEB-DL DDP5 1 H 264-FLUX
[RR/NF/CU]
Size: 1.3GB mkv H264 (HIGH) / EAC3  HD  1280x720

Beacon 23
File Information
[img]http://lookpic.com/cdn/i2/t/0415202401395227-1.jpg[/img]
[img]http://lookpic.com/cdn/i2/t/0415202401395227-2.jpg[/img]
[img]http://lookpic.com/cdn/i2/t/0415202401395227-3.jpg[/img]

General
Unique ID                                : 52074079448580405690084247354313891676 (0x272D1A573CDBC503BFA6692C9DCD5F5C)
Complete name                            : Beacon 23 S02E02 Purgatory 720p AMZN WEB-DL DDP5 1 H 264-FLUX.mkv
Format                                   : Matroska
Format version                           : Version 4
File size                                : 1.31 GiB
Duration                                 : 48 min 26 s
Overall bit rate                         : 3 857 kb/s
Frame rate                               : 23.976 FPS
Writing application                      : mkvmerge v81.0 ('Milliontown') 64-bit
Writing library                          : libebml v1.4.4 + libmatroska v1.7.1

Video
ID                                       : 1
Format                                   : AVC
Format/Info                              : Advanced Video Codec
Format profile                           : High@L3.1
Format settings                          : CABAC / 4 Ref Frames
Format settings, CABAC                   : Yes
Format settings, Reference frames        : 4 frames
Codec ID                                 : V_MPEG4/ISO/AVC
Duration                                 : 48 min 26 s
Bit rate mode                            : Constant
Bit rate                                 : 3 215 kb/s
Nominal bit rate                         : 6 000 kb/s
Width                                    : 1 280 pixels
Height                                   : 720 pixels
Display aspect ratio                     : 16:9
Frame rate mode                          : Constant
Frame rate                               : 23.976 (24000/1001) FPS
Color space                              : YUV
Chroma subsampling                       : 4:2:0
Bit depth                                : 8 bits
Scan type                                : Progressive
Bits/(Pixel*Frame)                       : 0.145
Stream size                              : 1.09 GiB (83%)
Language                                 : English (US)
Default                                  : Yes
Forced                                   : No
Color range                              : Limited
Color primaries                          : BT.709
Transfer characteristics                 : BT.709
Matrix coefficients                      : BT.709

Audio
ID                                       : 2
Format                                   : E-AC-3
Format/Info                              : Enhanced AC-3
Commercial name                          : Dolby Digital Plus
Codec ID                                 : A_EAC3
Duration                                 : 48 min 26 s
Bit rate mode                            : Constant
Bit rate                                 : 640 kb/s
Channel(s)                               : 6 channels
Channel layout                           : L R C LFE Ls Rs
Sampling rate                            : 48.0 kHz
Frame rate                               : 31.250 FPS (1536 SPF)
Compression mode                         : Lossy
Stream size                              : 222 MiB (17%)
Language                                 : English
Service kind                             : Complete Main
Default                                  : Yes
Forced                                   : No

Text #1
ID                                       : 3
Format                                   : UTF-8
Codec ID                                 : S_TEXT/UTF8
Codec ID/Info                            : UTF-8 Plain Text
Duration                                 : 48 min 2 s
Bit rate                                 : 46 b/s
Frame rate                               : 0.190 FPS
Count of elements                        : 548
Stream size                              : 16.3 KiB (0%)
Language                                 : English (US)
Default                                  : No
Forced                                   : No

Text #2
ID                                       : 4
Format                                   : UTF-8
Codec ID                                 : S_TEXT/UTF8
Codec ID/Info                            : UTF-8 Plain Text
Duration                                 : 48 min 2 s
Bit rate                                 : 53 b/s
Frame rate                               : 0.239 FPS
Count of elements                        : 690
Stream size                              : 18.7 KiB (0%)
Title                                    : SDH
Language                                 : English (US)
Default                                  : No
Forced                                   : No

Menu
00:00:00.000                             : en:Scene 1
00:00:16.000                             : en:Recap
00:01:35.000                             : en:Scene 2
00:01:36.000                             : en:Intro
00:02:09.000                             : en:Scene 3
00:47:47.000                             : en:End Credits



Download
File Container: MKV
Video/Audio Codec: H264 (HIGH) EAC3
Video Resolution: 1280x720

1 Response to "[RR/NF/CU] Beacon 23 S02E02 Purgatory 720p AMZN WEB-DL DDP5 1 H 264-FLUX (1.3GB)"
04/15/24
06:11:49
ReadyPlayerOne

Thank you!

Please Login to post a comment.
If you don't have any account, please Register.
  • Subscribe my Feeds
  • Facebook
Encoding Queue:  x264  x265

Latest Episodes

Popular Movies and TV Shows

  • Star Trek: Discovery
  • The Good Doctor
  • Concordia
  • Reunion
  • The Blue Angels
  • The Fall Guy
  • Evil
  • Chicago Fire
  • Tires
  • Water's Edge
  • Carol Doda Topless at the Condor
  • Mad God
  • Chicago P.D.
  • The Rookie
  • FBI: Most Wanted
  • Ladies and Gentlemen: The Rolling Stones
  • Boy Kills World
  • Affliction
  • FBI
  • Dark Matter
  • The Bold and the Beautiful
  • Mooned
  • Rachel Feinstein: Big Guy
  • The Manchurian Candidate
  • The Daily Show

Recent Comments

  • big_ralphie: Just sitting down to watch and, yes there are subtitles...in ITALIAN ONLY. ENGLISH subs might be hel...
  • Geependo:

    All links are dead

  • OldMovies:

    Has Czech subtitles but not English. Need forced English for the foreign language parts.

  • PROFessorMorrynarty: Would it be possible to upload 'Lego masters Australia' Series 6 Episode 6 Please? It's the only one...
  • mentalityx:

    Thx mate.

  • Bud: Is the search engine down for everyone, or just me? It just says 'You're forbidden!' whenever I lo...
  • 23d1:

    not episode 4 it is episode 3

  • 23d1:

    not episode 4 it is episode 3

  • 23d1:

    not episode 4 it is episode 3

  • 23d1:

    not episode 4 it is episode 3

Archives