Sign Up   |   Sign In  
12 StrongMacGyverWWE NXTColors of Evil: RedThe Feeling That the Time for Doing Something Has PassedBrigada NimicFuriosa: A Mad Max SagaMasterChef AustraliaUnder the BridgeTarotAutoeroticThe VeilDark MatterThe Big Door PrizeLootYour Mother's SonCivil WarMahal ko ang mahal moThe Bold and the BeautifulWWE RawCSI: VegasThe First OmenThis Beautiful FantasticSerbidorasThe Daily Show

Announcements

04/21

2024

1

Comments

Beacon 23 S02E03 Iris 720p AMZN WEB-DL DDP5 1 H 264-FLUX
[RR/NF/CU]
Size: 986MB mkv H264 (HIGH) / EAC3  HD  1280x720

Beacon 23
File Information
[img]http://lookpic.com/cdn/i2/t/0421202406443159-1.jpg[/img]
[img]http://lookpic.com/cdn/i2/t/0421202406443159-2.jpg[/img]
[img]http://lookpic.com/cdn/i2/t/0421202406443159-3.jpg[/img]

General
Unique ID                                : 199950261716700756649923465673410453416 (0x966D05074FEEBB17EA3B39684AE99FA8)
Complete name                            : Beacon 23 S02E03 Iris 720p AMZN WEB-DL DDP5 1 H 264-FLUX.mkv
Format                                   : Matroska
Format version                           : Version 4
File size                                : 987 MiB
Duration                                 : 45 min 45 s
Overall bit rate                         : 3 014 kb/s
Frame rate                               : 23.976 FPS
Writing application                      : mkvmerge v81.0 ('Milliontown') 64-bit
Writing library                          : libebml v1.4.4 + libmatroska v1.7.1

Video
ID                                       : 1
Format                                   : AVC
Format/Info                              : Advanced Video Codec
Format profile                           : High@L3.1
Format settings                          : CABAC / 4 Ref Frames
Format settings, CABAC                   : Yes
Format settings, Reference frames        : 4 frames
Codec ID                                 : V_MPEG4/ISO/AVC
Duration                                 : 45 min 45 s
Bit rate mode                            : Constant
Bit rate                                 : 2 372 kb/s
Nominal bit rate                         : 6 000 kb/s
Width                                    : 1 280 pixels
Height                                   : 720 pixels
Display aspect ratio                     : 16:9
Frame rate mode                          : Constant
Frame rate                               : 23.976 (24000/1001) FPS
Color space                              : YUV
Chroma subsampling                       : 4:2:0
Bit depth                                : 8 bits
Scan type                                : Progressive
Bits/(Pixel*Frame)                       : 0.107
Stream size                              : 777 MiB (79%)
Language                                 : English (US)
Default                                  : Yes
Forced                                   : No
Color range                              : Limited
Color primaries                          : BT.709
Transfer characteristics                 : BT.709
Matrix coefficients                      : BT.709

Audio
ID                                       : 2
Format                                   : E-AC-3
Format/Info                              : Enhanced AC-3
Commercial name                          : Dolby Digital Plus
Codec ID                                 : A_EAC3
Duration                                 : 45 min 45 s
Bit rate mode                            : Constant
Bit rate                                 : 640 kb/s
Channel(s)                               : 6 channels
Channel layout                           : L R C LFE Ls Rs
Sampling rate                            : 48.0 kHz
Frame rate                               : 31.250 FPS (1536 SPF)
Compression mode                         : Lossy
Stream size                              : 209 MiB (21%)
Language                                 : English
Service kind                             : Complete Main
Default                                  : Yes
Forced                                   : No

Text #1
ID                                       : 3
Format                                   : UTF-8
Codec ID                                 : S_TEXT/UTF8
Codec ID/Info                            : UTF-8 Plain Text
Duration                                 : 44 min 55 s
Bit rate                                 : 43 b/s
Frame rate                               : 0.182 FPS
Count of elements                        : 491
Stream size                              : 14.2 KiB (0%)
Language                                 : English (US)
Default                                  : No
Forced                                   : No

Text #2
ID                                       : 4
Format                                   : UTF-8
Codec ID                                 : S_TEXT/UTF8
Codec ID/Info                            : UTF-8 Plain Text
Duration                                 : 44 min 55 s
Bit rate                                 : 53 b/s
Frame rate                               : 0.239 FPS
Count of elements                        : 643
Stream size                              : 17.7 KiB (0%)
Title                                    : SDH
Language                                 : English (US)
Default                                  : No
Forced                                   : No

Menu
00:00:00.000                             : en:Scene 1
00:00:18.000                             : en:Recap
00:01:21.000                             : en:Scene 2
00:01:22.000                             : en:Intro
00:01:55.000                             : en:Scene 3
00:45:06.000                             : en:End Credits



Download
File Container: MKV
Video/Audio Codec: H264 (HIGH) EAC3
Video Resolution: 1280x720

1 Response to "[RR/NF/CU] Beacon 23 S02E03 Iris 720p AMZN WEB-DL DDP5 1 H 264-FLUX (986MB)"
04/21/24
07:19:54
ReadyPlayerOne

Thank You

Please Login to post a comment.
If you don't have any account, please Register.
  • Subscribe my Feeds
  • Facebook
Encoding Queue:  x264  x265

Latest Episodes

Popular Movies and TV Shows

  • 12 Strong
  • MacGyver
  • WWE NXT
  • Colors of Evil: Red
  • The Feeling That the Time for Doing Something Has Passed
  • Brigada Nimic
  • Furiosa: A Mad Max Saga
  • MasterChef Australia
  • Under the Bridge
  • Tarot
  • Autoerotic
  • The Veil
  • Dark Matter
  • The Big Door Prize
  • Loot
  • Your Mother's Son
  • Civil War
  • Mahal ko ang mahal mo
  • The Bold and the Beautiful
  • WWE Raw
  • CSI: Vegas
  • The First Omen
  • This Beautiful Fantastic
  • Serbidoras
  • The Daily Show

Recent Comments

  • Bionicone: Yea this is not the Bluray version. This is another Cam. This thing should be taken down. Do not dow...
  • spiderspinner: Bud:The same thing started happening to me last night and I've used four different browsers yet they...
  • timt:

    Junk, CAM

  • upx:

    WARNING:This is NOT a BluRay rip. It's a CAMrip.

  • Bud: Is clicknupload borked for anyone else now, or is it just me? In recent months it's only worked in...
  • mentalityx:

    Rad bloke!

  • waanaabe: I hope someone follows through with the rest! also, did not check every post but hoping future ones ...
  • Demonz:

    Holy popups ClickNupload

  • rambaldi70:

    this release sort cut! 1h33m12 !
    imdb - 1h 54m

  • rambaldi70: This release the first bad source 1h33m12 - stop the play this release sort cut! 1h33m12 ! imdb - 1h...
  • rambaldi70:

    this release sort cut! 1h33m12 !
    imdb - 1h 54m

  • dilliboy: Will we ever see these RMTeam releases ever again? I hope they're not lost to the digital graveyard ...
  • kang:

    NitroFlare's link is missing...

  • kang:

    NitroFlare's link is missing...

  • tchamast:

    @Wrapt

    I've seen that too, don't know why.

  • Rafi85: Hi thx for the 14th season. Is it possible to reupload some episodes plz they were removed. These ar...
  • KubrickFan:

    Any possibility of a fresh link for this?

  • GubeShitemon: This is a different movie to the artwork version. Not the Dylan McDermott film but the Ben Affleck f...
  • drorsabi1:

    @admin
    Please add "My Adventures With Superman Season 2 "

  • Wrapt: Hahahaha yeah right make a liar out of me but I was referring to comments made about a movie or an e...

Archives