Sign Up   |   Sign In  
The Artifice GirlThe PrimevalsCashbackAll RiseThe AcolytePresumed InnocentDark MatterMysteries of the Terracotta WarriorsHow Music Got FreeNinja TerminatorWWE NXTThe Big Door PrizeTryingLost SoulzPet SemataryThe Beast in the JungleThe Loud HouseAcapulcoThe Bold and the BeautifulPeggy Sue Got MarriedWild Eyed and WickedFrom Russia with LoveThe Daily ShowWWE Smackdown!Survivor

Announcements

05/26

2024

1

Comments

Beacon 23 S02E08 Disintegration 720p AMZN WEB-DL DDP5 1 H 264-FLUX
[RR/NF/CU]
Size: 904MB mkv H264 (HIGH) / EAC3  HD  1280x720

Beacon 23
File Information
[img]http://lookpic.com/cdn/i2/t/0526202406293625-1.jpg[/img]
[img]http://lookpic.com/cdn/i2/t/0526202406293625-2.jpg[/img]
[img]http://lookpic.com/cdn/i2/t/0526202406293625-3.jpg[/img]

General
Unique ID                                : 38724609384418817068319794087465138337 (0x1D2216A69CF847F3396845824DD138A1)
Complete name                            : Beacon 23 S02E08 Disintegration 720p AMZN WEB-DL DDP5 1 H 264-FLUX.mkv
Format                                   : Matroska
Format version                           : Version 4
File size                                : 904 MiB
Duration                                 : 45 min 43 s
Overall bit rate                         : 2 765 kb/s
Frame rate                               : 23.976 FPS
Writing application                      : mkvmerge v79.0 ('Funeral Pyres') 64-bit
Writing library                          : libebml v1.4.4 + libmatroska v1.7.1

Video
ID                                       : 1
Format                                   : AVC
Format/Info                              : Advanced Video Codec
Format profile                           : High@L3.1
Format settings                          : CABAC / 4 Ref Frames
Format settings, CABAC                   : Yes
Format settings, Reference frames        : 4 frames
Codec ID                                 : V_MPEG4/ISO/AVC
Duration                                 : 45 min 43 s
Bit rate mode                            : Constant
Bit rate                                 : 2 123 kb/s
Nominal bit rate                         : 6 000 kb/s
Width                                    : 1 280 pixels
Height                                   : 720 pixels
Display aspect ratio                     : 16:9
Frame rate mode                          : Constant
Frame rate                               : 23.976 (24000/1001) FPS
Color space                              : YUV
Chroma subsampling                       : 4:2:0
Bit depth                                : 8 bits
Scan type                                : Progressive
Bits/(Pixel*Frame)                       : 0.096
Stream size                              : 694 MiB (77%)
Language                                 : English (US)
Default                                  : Yes
Forced                                   : No
Color range                              : Limited
Color primaries                          : BT.709
Transfer characteristics                 : BT.709
Matrix coefficients                      : BT.709

Audio
ID                                       : 2
Format                                   : E-AC-3
Format/Info                              : Enhanced AC-3
Commercial name                          : Dolby Digital Plus
Codec ID                                 : A_EAC3
Duration                                 : 45 min 43 s
Bit rate mode                            : Constant
Bit rate                                 : 640 kb/s
Channel(s)                               : 6 channels
Channel layout                           : L R C LFE Ls Rs
Sampling rate                            : 48.0 kHz
Frame rate                               : 31.250 FPS (1536 SPF)
Compression mode                         : Lossy
Stream size                              : 209 MiB (23%)
Language                                 : English
Service kind                             : Complete Main
Default                                  : Yes
Forced                                   : No

Text #1
ID                                       : 3
Format                                   : UTF-8
Codec ID                                 : S_TEXT/UTF8
Codec ID/Info                            : UTF-8 Plain Text
Duration                                 : 44 min 53 s
Bit rate                                 : 52 b/s
Frame rate                               : 0.237 FPS
Count of elements                        : 637
Stream size                              : 17.2 KiB (0%)
Language                                 : English (US)
Default                                  : No
Forced                                   : No

Text #2
ID                                       : 4
Format                                   : UTF-8
Codec ID                                 : S_TEXT/UTF8
Codec ID/Info                            : UTF-8 Plain Text
Duration                                 : 44 min 53 s
Bit rate                                 : 60 b/s
Frame rate                               : 0.290 FPS
Count of elements                        : 782
Stream size                              : 20.0 KiB (0%)
Title                                    : SDH
Language                                 : English (US)
Default                                  : No
Forced                                   : No

Menu
00:00:00.000                             : en:Scene 1
00:00:16.000                             : en:Recap
00:02:03.000                             : en:Scene 2
00:02:06.000                             : en:Intro
00:02:37.000                             : en:Scene 3
00:45:03.000                             : en:End Credits



Download
File Container: MKV
Video/Audio Codec: H264 (HIGH) EAC3
Video Resolution: 1280x720

1 Response to "[RR/NF/CU] Beacon 23 S02E08 Disintegration 720p AMZN WEB-DL DDP5 1 H 264-FLUX (904MB)"
05/26/24
06:57:32
ReadyPlayerOne

Thank You

Please Login to post a comment.
If you don't have any account, please Register.
  • Subscribe my Feeds
  • Facebook
Encoding Queue:  x264  x265

Latest Episodes

Popular Movies and TV Shows

  • The Artifice Girl
  • The Primevals
  • Cashback
  • All Rise
  • The Acolyte
  • Presumed Innocent
  • Dark Matter
  • Mysteries of the Terracotta Warriors
  • How Music Got Free
  • Ninja Terminator
  • WWE NXT
  • The Big Door Prize
  • Trying
  • Lost Soulz
  • Pet Sematary
  • The Beast in the Jungle
  • The Loud House
  • Acapulco
  • The Bold and the Beautiful
  • Peggy Sue Got Married
  • Wild Eyed and Wicked
  • From Russia with Love
  • The Daily Show
  • WWE Smackdown!
  • Survivor

Recent Comments

  • KissclTum: [url=https://kisstom.ru/prices]имплант с коронкой цена кисс [/url] Tegs: и...
  • Diggety247:

    BrokenHanded, Try using a DL manager.

  • BrokenHanded: clicknupload does not seem to work for past few days. keep getting an error saying the site is sendi...
  • Bud: Helps if you actually add these to the "Late Night with Seth Meyers" page too...
  • rambaldi70:

    Hy! Right now, my download speed : 1 Mb/s
    this is ok?
    Tx answer

  • Cinque_Persson: At 183 MB this had to be something completely different. In fact it's just the main actors commentin...
  • meyat74:

    my bad, should be full season

  • Oscar2:

    Halo "is" a good show

  • MeH:

    "one of the most impressive scenes"

  • rappet:

    Unfortunately, episode 2 not playing and episode 3 half missing (only 37 minutes long).

  • Anovani:

    Nice 1

  • shark:

    Will there be a sequel?

  • sjors:

    This release in in Russian with Russian subs. No English.

  • RapidRabbit98: I'll ask again Forged in Fire Series 11 episode 1 - anyone have it?

Archives