Sign Up   |   Sign In  
Welcome to WrexhamHannah Einbinder: Everything Must GoMILF of NorwayI Saw the TV GlowSistasBratsThe Bold and the BeautifulThe ChiThe ChosenThe EgyptianNotas sobre un veranoInside Out 2WWE NXTThe BoysWalkerAssimilateMower MinionsMiddle of the NightEvilBridgertonCriminal MindsIn the Line of FireThe Artifice GirlLamp LifeThe Daily Show

Announcements

05/21

2024

1

Comments

Better Call Saul S06E01 REPACK 1080p AMZN WEB-DL DDP5 1 H 264-NTb
[RR/NF]
Size: 3.3GB mkv H264 (HIGH) / EAC3  HD  1920x1080

Better Call Saul
File Information
[img]http://lookpic.com/cdn/i2/t/0521202407060399-1.jpg[/img]
[img]http://lookpic.com/cdn/i2/t/0521202407060399-2.jpg[/img]
[img]http://lookpic.com/cdn/i2/t/0521202407060399-3.jpg[/img]

General
Unique ID                                : 326157956075863851721662326745153050231 (0xF55FBCC799C48E2DBA44889A979A9677)
Complete name                            : Better Call Saul S06E01 REPACK 1080p AMZN WEB-DL DDP5 1 H 264-NTb.mkv
Format                                   : Matroska
Format version                           : Version 4
File size                                : 3.28 GiB
Duration                                 : 55 min 31 s
Overall bit rate                         : 8 466 kb/s
Frame rate                               : 23.976 FPS
Encoded date                             : 2022-04-20 15:13:25 UTC
Writing application                      : mkvmerge v63.0.0 ('Everything') 64-bit
Writing library                          : libebml v1.4.2 + libmatroska v1.6.4

Video
ID                                       : 1
Format                                   : AVC
Format/Info                              : Advanced Video Codec
Format profile                           : High@L4
Format settings                          : CABAC / 4 Ref Frames
Format settings, CABAC                   : Yes
Format settings, Reference frames        : 4 frames
Codec ID                                 : V_MPEG4/ISO/AVC
Duration                                 : 55 min 30 s
Bit rate mode                            : Constant
Bit rate                                 : 7 822 kb/s
Nominal bit rate                         : 10 000 kb/s
Width                                    : 1 920 pixels
Height                                   : 1 080 pixels
Display aspect ratio                     : 16:9
Frame rate mode                          : Constant
Frame rate                               : 23.976 (24000/1001) FPS
Color space                              : YUV
Chroma subsampling                       : 4:2:0
Bit depth                                : 8 bits
Scan type                                : Progressive
Bits/(Pixel*Frame)                       : 0.157
Stream size                              : 3.03 GiB (92%)
Default                                  : Yes
Forced                                   : No
Color range                              : Limited
Color primaries                          : BT.709
Transfer characteristics                 : BT.709
Matrix coefficients                      : BT.709

Audio
ID                                       : 2
Format                                   : E-AC-3
Format/Info                              : Enhanced AC-3
Commercial name                          : Dolby Digital Plus
Codec ID                                 : A_EAC3
Duration                                 : 55 min 31 s
Bit rate mode                            : Constant
Bit rate                                 : 640 kb/s
Channel(s)                               : 6 channels
Channel layout                           : L R C LFE Ls Rs
Sampling rate                            : 48.0 kHz
Frame rate                               : 31.250 FPS (1536 SPF)
Bit depth                                : 32 bits
Compression mode                         : Lossy
Stream size                              : 254 MiB (8%)
Language                                 : English
Service kind                             : Complete Main
Default                                  : Yes
Forced                                   : No

Text #1
ID                                       : 3
Format                                   : UTF-8
Codec ID                                 : S_TEXT/UTF8
Codec ID/Info                            : UTF-8 Plain Text
Duration                                 : 48 min 16 s
Bit rate                                 : 5 b/s
Frame rate                               : 0.025 FPS
Count of elements                        : 71
Stream size                              : 1.92 KiB (0%)
Title                                    : Forced
Language                                 : English
Default                                  : Yes
Forced                                   : No

Text #2
ID                                       : 4
Format                                   : UTF-8
Codec ID                                 : S_TEXT/UTF8
Codec ID/Info                            : UTF-8 Plain Text
Duration                                 : 48 min 21 s
Bit rate                                 : 46 b/s
Frame rate                               : 0.205 FPS
Count of elements                        : 595
Stream size                              : 16.6 KiB (0%)
Language                                 : English
Default                                  : No
Forced                                   : No

Text #3
ID                                       : 5
Format                                   : UTF-8
Codec ID                                 : S_TEXT/UTF8
Codec ID/Info                            : UTF-8 Plain Text
Duration                                 : 49 min 24 s
Bit rate                                 : 53 b/s
Frame rate                               : 0.241 FPS
Count of elements                        : 713
Stream size                              : 19.4 KiB (0%)
Title                                    : SDH
Language                                 : English
Default                                  : No
Forced                                   : No

Text #4
ID                                       : 6
Format                                   : UTF-8
Codec ID                                 : S_TEXT/UTF8
Codec ID/Info                            : UTF-8 Plain Text
Duration                                 : 49 min 50 s
Bit rate                                 : 66 b/s
Frame rate                               : 0.178 FPS
Count of elements                        : 533
Stream size                              : 24.2 KiB (0%)
Language                                 : Arabic
Default                                  : No
Forced                                   : No

Text #5
ID                                       : 7
Format                                   : UTF-8
Codec ID                                 : S_TEXT/UTF8
Codec ID/Info                            : UTF-8 Plain Text
Duration                                 : 49 min 50 s
Bit rate                                 : 42 b/s
Frame rate                               : 0.168 FPS
Count of elements                        : 502
Stream size                              : 15.4 KiB (0%)
Language                                 : Danish
Default                                  : No
Forced                                   : No

Text #6
ID                                       : 8
Format                                   : UTF-8
Codec ID                                 : S_TEXT/UTF8
Codec ID/Info                            : UTF-8 Plain Text
Duration                                 : 49 min 50 s
Bit rate                                 : 41 b/s
Frame rate                               : 0.176 FPS
Count of elements                        : 526
Stream size                              : 15.1 KiB (0%)
Language                                 : German
Default                                  : No
Forced                                   : No

Text #7
ID                                       : 9
Format                                   : UTF-8
Codec ID                                 : S_TEXT/UTF8
Codec ID/Info                            : UTF-8 Plain Text
Duration                                 : 48 min 10 s
Bit rate                                 : 36 b/s
Frame rate                               : 0.157 FPS
Count of elements                        : 453
Stream size                              : 13.0 KiB (0%)
Title                                    : Spanish
Language                                 : Spanish
Default                                  : No
Forced                                   : No

Text #8
ID                                       : 10
Format                                   : UTF-8
Codec ID                                 : S_TEXT/UTF8
Codec ID/Info                            : UTF-8 Plain Text
Duration                                 : 48 min 10 s
Bit rate                                 : 36 b/s
Frame rate                               : 0.128 FPS
Count of elements                        : 369
Stream size                              : 13.0 KiB (0%)
Title                                    : European
Language                                 : Spanish
Default                                  : No
Forced                                   : No

Text #9
ID                                       : 11
Format                                   : UTF-8
Codec ID                                 : S_TEXT/UTF8
Codec ID/Info                            : UTF-8 Plain Text
Duration                                 : 49 min 50 s
Bit rate                                 : 35 b/s
Frame rate                               : 0.161 FPS
Count of elements                        : 481
Stream size                              : 12.9 KiB (0%)
Language                                 : Finnish
Default                                  : No
Forced                                   : No

Text #10
ID                                       : 12
Format                                   : UTF-8
Codec ID                                 : S_TEXT/UTF8
Codec ID/Info                            : UTF-8 Plain Text
Duration                                 : 49 min 50 s
Bit rate                                 : 40 b/s
Frame rate                               : 0.172 FPS
Count of elements                        : 515
Stream size                              : 14.8 KiB (0%)
Language                                 : French
Default                                  : No
Forced                                   : No

Text #11
ID                                       : 13
Format                                   : UTF-8
Codec ID                                 : S_TEXT/UTF8
Codec ID/Info                            : UTF-8 Plain Text
Duration                                 : 49 min 16 s
Bit rate                                 : 58 b/s
Frame rate                               : 0.182 FPS
Count of elements                        : 537
Stream size                              : 20.9 KiB (0%)
Language                                 : Hebrew
Default                                  : No
Forced                                   : No

Text #12
ID                                       : 14
Format                                   : UTF-8
Codec ID                                 : S_TEXT/UTF8
Codec ID/Info                            : UTF-8 Plain Text
Duration                                 : 49 min 50 s
Bit rate                                 : 43 b/s
Frame rate                               : 0.168 FPS
Count of elements                        : 502
Stream size                              : 15.8 KiB (0%)
Language                                 : Icelandic
Default                                  : No
Forced                                   : No

Text #13
ID                                       : 15
Format                                   : UTF-8
Codec ID                                 : S_TEXT/UTF8
Codec ID/Info                            : UTF-8 Plain Text
Duration                                 : 49 min 50 s
Bit rate                                 : 43 b/s
Frame rate                               : 0.178 FPS
Count of elements                        : 531
Stream size                              : 15.9 KiB (0%)
Language                                 : Italian
Default                                  : No
Forced                                   : No

Text #14
ID                                       : 16
Format                                   : UTF-8
Codec ID                                 : S_TEXT/UTF8
Codec ID/Info                            : UTF-8 Plain Text
Duration                                 : 49 min 41 s
Bit rate                                 : 36 b/s
Frame rate                               : 0.160 FPS
Count of elements                        : 476
Stream size                              : 13.3 KiB (0%)
Language                                 : Japanese
Default                                  : No
Forced                                   : No

Text #15
ID                                       : 17
Format                                   : UTF-8
Codec ID                                 : S_TEXT/UTF8
Codec ID/Info                            : UTF-8 Plain Text
Duration                                 : 49 min 50 s
Bit rate                                 : 49 b/s
Frame rate                               : 0.179 FPS
Count of elements                        : 535
Stream size                              : 18.1 KiB (0%)
Language                                 : Korean
Default                                  : No
Forced                                   : No

Text #16
ID                                       : 18
Format                                   : UTF-8
Codec ID                                 : S_TEXT/UTF8
Codec ID/Info                            : UTF-8 Plain Text
Duration                                 : 49 min 50 s
Bit rate                                 : 38 b/s
Frame rate                               : 0.175 FPS
Count of elements                        : 524
Stream size                              : 14.0 KiB (0%)
Language                                 : Norwegian Bokmal
Default                                  : No
Forced                                   : No

Text #17
ID                                       : 19
Format                                   : UTF-8
Codec ID                                 : S_TEXT/UTF8
Codec ID/Info                            : UTF-8 Plain Text
Duration                                 : 49 min 50 s
Bit rate                                 : 41 b/s
Frame rate                               : 0.170 FPS
Count of elements                        : 507
Stream size                              : 15.0 KiB (0%)
Language                                 : Dutch
Default                                  : No
Forced                                   : No

Text #18
ID                                       : 20
Format                                   : UTF-8
Codec ID                                 : S_TEXT/UTF8
Codec ID/Info                            : UTF-8 Plain Text
Duration                                 : 49 min 42 s
Bit rate                                 : 38 b/s
Frame rate                               : 0.168 FPS
Count of elements                        : 501
Stream size                              : 14.2 KiB (0%)
Language                                 : Polish
Default                                  : No
Forced                                   : No

Text #19
ID                                       : 21
Format                                   : UTF-8
Codec ID                                 : S_TEXT/UTF8
Codec ID/Info                            : UTF-8 Plain Text
Duration                                 : 49 min 50 s
Bit rate                                 : 43 b/s
Frame rate                               : 0.176 FPS
Count of elements                        : 527
Stream size                              : 15.8 KiB (0%)
Title                                    : Portuguese
Language                                 : Portuguese
Default                                  : No
Forced                                   : No

Text #20
ID                                       : 22
Format                                   : UTF-8
Codec ID                                 : S_TEXT/UTF8
Codec ID/Info                            : UTF-8 Plain Text
Duration                                 : 49 min 50 s
Bit rate                                 : 43 b/s
Frame rate                               : 0.176 FPS
Count of elements                        : 526
Stream size                              : 15.8 KiB (0%)
Title                                    : Brazilian
Language                                 : Portuguese
Default                                  : No
Forced                                   : No

Text #21
ID                                       : 23
Format                                   : UTF-8
Codec ID                                 : S_TEXT/UTF8
Codec ID/Info                            : UTF-8 Plain Text
Duration                                 : 48 min 56 s
Bit rate                                 : 41 b/s
Frame rate                               : 0.161 FPS
Count of elements                        : 472
Stream size                              : 15.0 KiB (0%)
Language                                 : Romanian
Default                                  : No
Forced                                   : No

Text #22
ID                                       : 24
Format                                   : UTF-8
Codec ID                                 : S_TEXT/UTF8
Codec ID/Info                            : UTF-8 Plain Text
Duration                                 : 49 min 50 s
Bit rate                                 : 42 b/s
Frame rate                               : 0.170 FPS
Count of elements                        : 507
Stream size                              : 15.5 KiB (0%)
Language                                 : Swedish
Default                                  : No
Forced                                   : No

Text #23
ID                                       : 25
Format                                   : UTF-8
Codec ID                                 : S_TEXT/UTF8
Codec ID/Info                            : UTF-8 Plain Text
Duration                                 : 49 min 42 s
Bit rate                                 : 107 b/s
Frame rate                               : 0.174 FPS
Count of elements                        : 518
Stream size                              : 39.1 KiB (0%)
Language                                 : Thai
Default                                  : No
Forced                                   : No

Text #24
ID                                       : 26
Format                                   : UTF-8
Codec ID                                 : S_TEXT/UTF8
Codec ID/Info                            : UTF-8 Plain Text
Duration                                 : 49 min 50 s
Bit rate                                 : 39 b/s
Frame rate                               : 0.170 FPS
Count of elements                        : 509
Stream size                              : 14.3 KiB (0%)
Title                                    : Simplified
Language                                 : Chinese
Default                                  : No
Forced                                   : No

Text #25
ID                                       : 27
Format                                   : UTF-8
Codec ID                                 : S_TEXT/UTF8
Codec ID/Info                            : UTF-8 Plain Text
Duration                                 : 49 min 50 s
Bit rate                                 : 37 b/s
Frame rate                               : 0.179 FPS
Count of elements                        : 534
Stream size                              : 13.8 KiB (0%)
Title                                    : Traditional
Language                                 : Chinese
Default                                  : No
Forced                                   : No



Download
File Container: MKV
Video/Audio Codec: H264 (HIGH) EAC3
Video Resolution: 1920x1080

1 Response to "[RR/NF] Better Call Saul S06E01 REPACK 1080p AMZN WEB-DL DDP5 1 H 264-NTb (3.3GB)"
05/21/24
07:20:48
ReadyPlayerOne

Thank You

Please Login to post a comment.
If you don't have any account, please Register.
  • Subscribe my Feeds
  • Facebook
Encoding Queue:  x264  x265

Latest Episodes

Popular Movies and TV Shows

  • Welcome to Wrexham
  • Hannah Einbinder: Everything Must Go
  • MILF of Norway
  • I Saw the TV Glow
  • Sistas
  • Brats
  • The Bold and the Beautiful
  • The Chi
  • The Chosen
  • The Egyptian
  • Notas sobre un verano
  • Inside Out 2
  • WWE NXT
  • The Boys
  • Walker
  • Assimilate
  • Mower Minions
  • Middle of the Night
  • Evil
  • Bridgerton
  • Criminal Minds
  • In the Line of Fire
  • The Artifice Girl
  • Lamp Life
  • The Daily Show

Recent Comments

Archives