Sign Up   |   Sign In  
X-Men '97Ghostbusters: Frozen EmpireStar Wars: The Bad BatchUnder the BridgeAn American Bombing: The Road to April 19thLa noche de los asesinosFBIThe Cleaning LadyFBI: InternationalGodzilla x Kong: The New EmpireDune: Part TwoThe Truth vs. Alex JonesFBI: Most WantedPalm RoyaleShogunLa margeImmaculateJimmy Carr: Natural Born KillerNCISCurb Your EnthusiasmNCIS: Hawai'iSweet DreamsProject DorothyThe 100th: Billy Joel at Madison Square Garden - The Greatest Arena Run of All TimeFallout

Announcements

03/29

2024

No

Comments

Big Mood S01E05 The Edge 1080p STAN WEB-DL DDP5 1 H 264-FLUX
[RR/NF/CU]
Size: 1008MB mkv H264 (HIGH) / EAC3  HD  1920x1080

Big Mood
File Information
[img]http://lookpic.com/cdn/i2/t/0329202420152816-1.jpg[/img]
[img]http://lookpic.com/cdn/i2/t/0329202420152816-2.jpg[/img]
[img]http://lookpic.com/cdn/i2/t/0329202420152816-3.jpg[/img]

General
Unique ID                                : 193768351251324116970428500436525020476 (0x91C66D4F8A748277E858AEF68E94753C)
Complete name                            : Big Mood S01E05 The Edge 1080p STAN WEB-DL DDP5 1 H 264-FLUX.mkv
Format                                   : Matroska
Format version                           : Version 4
File size                                : 1 008 MiB
Duration                                 : 24 min 55 s
Overall bit rate                         : 5 657 kb/s
Frame rate                               : 25.000 FPS
Writing application                      : mkvmerge v81.0 ('Milliontown') 64-bit
Writing library                          : libebml v1.4.4 + libmatroska v1.7.1

Video
ID                                       : 1
Format                                   : AVC
Format/Info                              : Advanced Video Codec
Format profile                           : High@L4
Format settings                          : CABAC / 4 Ref Frames
Format settings, CABAC                   : Yes
Format settings, Reference frames        : 4 frames
Codec ID                                 : V_MPEG4/ISO/AVC
Duration                                 : 24 min 55 s
Bit rate                                 : 5 270 kb/s
Width                                    : 1 920 pixels
Height                                   : 1 080 pixels
Display aspect ratio                     : 16:9
Frame rate mode                          : Constant
Frame rate                               : 25.000 FPS
Color space                              : YUV
Chroma subsampling                       : 4:2:0
Bit depth                                : 8 bits
Scan type                                : Progressive
Bits/(Pixel*Frame)                       : 0.102
Stream size                              : 939 MiB (93%)
Language                                 : English
Default                                  : Yes
Forced                                   : No
Color range                              : Limited
Color primaries                          : BT.709
Transfer characteristics                 : BT.709
Matrix coefficients                      : BT.709

Audio
ID                                       : 2
Format                                   : E-AC-3
Format/Info                              : Enhanced AC-3
Commercial name                          : Dolby Digital Plus
Codec ID                                 : A_EAC3
Duration                                 : 24 min 55 s
Bit rate mode                            : Constant
Bit rate                                 : 384 kb/s
Channel(s)                               : 6 channels
Channel layout                           : L R C LFE Ls Rs
Sampling rate                            : 48.0 kHz
Frame rate                               : 31.250 FPS (1536 SPF)
Compression mode                         : Lossy
Stream size                              : 68.4 MiB (7%)
Language                                 : English
Service kind                             : Complete Main
Default                                  : Yes
Forced                                   : No

Text #1
ID                                       : 3
Format                                   : UTF-8
Codec ID                                 : S_TEXT/UTF8
Codec ID/Info                            : UTF-8 Plain Text
Duration                                 : 23 min 51 s
Bit rate                                 : 86 b/s
Frame rate                               : 0.286 FPS
Count of elements                        : 410
Stream size                              : 15.1 KiB (0%)
Language                                 : English
Default                                  : No
Forced                                   : No

Text #2
ID                                       : 4
Format                                   : UTF-8
Codec ID                                 : S_TEXT/UTF8
Codec ID/Info                            : UTF-8 Plain Text
Duration                                 : 24 min 27 s
Bit rate                                 : 88 b/s
Frame rate                               : 0.302 FPS
Count of elements                        : 443
Stream size                              : 15.9 KiB (0%)
Title                                    : SDH
Language                                 : English
Default                                  : No
Forced                                   : No

Menu
00:24:22.000                             : en:Credits



Download
File Container: MKV
Video/Audio Codec: H264 (HIGH) EAC3
Video Resolution: 1920x1080
Please Login to post a comment.
If you don't have any account, please Register.
  • Subscribe my Feeds
  • Facebook
Encoding Queue:  x264  x265

Latest Episodes

Popular Movies and TV Shows

  • X-Men '97
  • Ghostbusters: Frozen Empire
  • Star Wars: The Bad Batch
  • Under the Bridge
  • An American Bombing: The Road to April 19th
  • La noche de los asesinos
  • FBI
  • The Cleaning Lady
  • FBI: International
  • Godzilla x Kong: The New Empire
  • Dune: Part Two
  • The Truth vs. Alex Jones
  • FBI: Most Wanted
  • Palm Royale
  • Shogun
  • La marge
  • Immaculate
  • Jimmy Carr: Natural Born Killer
  • NCIS
  • Curb Your Enthusiasm
  • NCIS: Hawai'i
  • Sweet Dreams
  • Project Dorothy
  • The 100th: Billy Joel at Madison Square Garden - The Greatest Arena Run of All Time
  • Fallout

Recent Comments

  • ubirattan:

    Mandem um Fikper, por favor.

  • kellym2: No answer yet for my query - why all the episodes "server under maintenance" on some episo...
  • Majnon:

    Rapidrar links are dead :(

  • Rake:

    Loads of "Server is under maintenance" with RR theese days...

  • kellym2: Why am I getting "Server is in maintenance mode" on some episodes of a series and not on o...
  • Bud:

    Are you ever going to put up Thursday's episode with Liev Schreiber?

  • alp-engin:

    When will that maintenance be over? Please...

  • mentalityx:

    Rad bloke

  • DownloadHostInspector:

    so far these RMTeam uploads always have a working link. DownloadHostInspector approved!

  • DownloadHostInspector:

    ah yes, this upload has a host that works. clicknupload. DownloadHostInspector approved!

  • DownloadHostInspector: Why are all the download hosts trash? none of them let you download it

Archives