Sign Up   |   Sign In  
FBI: Most WantedFBIFBI: InternationalGods of EgyptMR-9: Do or DieThe Big Door PrizeUnder the BridgeLootDrive-Away DollsHanky PankyAccidental TexanShogunMonkey ManArthur the KingNCISThe NeighborhoodMy MercuryNCIS: Hawai'iBob Hearts AbisholaThe SimpsonsDowntown OwlAftermathOne LifeTrackerThe Sympathizer

Announcements

03/28

2024

No

Comments

Chicago P D S11E08 On Paper 1080p AMZN WEB-DL DDP5 1 H 264-FLUX
[RR/NF]
Size: 2.5GB mkv H264 (HIGH) / EAC3  HD  1920x1080

Chicago P.D.
File Information
[img]http://lookpic.com/cdn/i2/t/0328202410470478-1.jpg[/img]
[img]http://lookpic.com/cdn/i2/t/0328202410470478-2.jpg[/img]
[img]http://lookpic.com/cdn/i2/t/0328202410470478-3.jpg[/img]

General
Unique ID                                : 43674197758611338960516987622764777887 (0x20DB5832DBCA32176AD0933A116B119F)
Complete name                            : Chicago.P.D.S11E08.On.Paper.1080p.AMZN.WEB-DL.DDP5.1.H.264-FLUX.mkv
Format                                   : Matroska
Format version                           : Version 4
File size                                : 2.53 GiB
Duration                                 : 42 min 27 s
Overall bit rate mode                    : Constant
Overall bit rate                         : 8 525 kb/s
Frame rate                               : 23.976 FPS
Writing application                      : mkvmerge v82.0 ('I'm The President') 64-bit
Writing library                          : libebml v1.4.5 + libmatroska v1.7.1

Video
ID                                       : 1
Format                                   : AVC
Format/Info                              : Advanced Video Codec
Format profile                           : High@L4
Format settings                          : CABAC / 4 Ref Frames
Format settings, CABAC                   : Yes
Format settings, Reference frames        : 4 frames
Codec ID                                 : V_MPEG4/ISO/AVC
Duration                                 : 42 min 27 s
Bit rate mode                            : Constant
Bit rate                                 : 7 883 kb/s
Nominal bit rate                         : 10 000 kb/s
Width                                    : 1 920 pixels
Height                                   : 1 080 pixels
Display aspect ratio                     : 16:9
Frame rate mode                          : Constant
Frame rate                               : 23.976 (24000/1001) FPS
Color space                              : YUV
Chroma subsampling                       : 4:2:0
Bit depth                                : 8 bits
Scan type                                : Progressive
Bits/(Pixel*Frame)                       : 0.159
Stream size                              : 2.34 GiB (92%)
Language                                 : English (US)
Default                                  : Yes
Forced                                   : No
Color range                              : Limited
Color primaries                          : BT.709
Transfer characteristics                 : BT.709
Matrix coefficients                      : BT.709

Audio
ID                                       : 2
Format                                   : E-AC-3
Format/Info                              : Enhanced AC-3
Commercial name                          : Dolby Digital Plus
Codec ID                                 : A_EAC3
Duration                                 : 42 min 27 s
Bit rate mode                            : Constant
Bit rate                                 : 640 kb/s
Channel(s)                               : 6 channels
Channel layout                           : L R C LFE Ls Rs
Sampling rate                            : 48.0 kHz
Frame rate                               : 31.250 FPS (1536 SPF)
Compression mode                         : Lossy
Stream size                              : 194 MiB (8%)
Language                                 : English
Service kind                             : Complete Main
Default                                  : Yes
Forced                                   : No

Menu
00:00:00.000                             : en:Scene 1
00:41:43.000                             : en:End Credits



Download
File Container: MKV
Video/Audio Codec: H264 (HIGH) EAC3
Video Resolution: 1920x1080
Please Login to post a comment.
If you don't have any account, please Register.
  • Subscribe my Feeds
  • Facebook
Encoding Queue:  x264  x265

Latest Episodes

Popular Movies and TV Shows

  • FBI: Most Wanted
  • FBI
  • FBI: International
  • Gods of Egypt
  • MR-9: Do or Die
  • The Big Door Prize
  • Under the Bridge
  • Loot
  • Drive-Away Dolls
  • Hanky Panky
  • Accidental Texan
  • Shogun
  • Monkey Man
  • Arthur the King
  • NCIS
  • The Neighborhood
  • My Mercury
  • NCIS: Hawai'i
  • Bob Hearts Abishola
  • The Simpsons
  • Downtown Owl
  • Aftermath
  • One Life
  • Tracker
  • The Sympathizer

Recent Comments

  • ReadyPlayerOne:

    THANK YOU

  • ReadyPlayerOne:

    THANK YOU

  • ReadyPlayerOne:

    THANK YOU

  • mentalityx:

    Thx dude.

  • 89M:

    NitroFlare's link is missing !!!
    Clicknupload's link is missing !!!

  • V4ND4L: May we get a ClicknUpload link for this, please. It's conspicuously missing for the team/size.
  • Bud:

    The file's half the size it should be & corrupted. Useless. Avoid.

  • mentalityx:

    Rad dude

  • mentalityx:

    Rad mate

  • waanaabe:

    I tried this file with 3 different players which all said they couldn't read the codec

  • Rosa: hi i have a question,this file size is 198mb,but on clickenupload is only 118mb is it right? what ha...
  • mike1204:

    Any reason why this episode is omitted from 'click'n'upload??

  • kellym2: I appreciate all the hard work the team does BUT there is no point in my paying for a Premium subscr...
  • Cinque_Persson: Why not skip the old news and hearsay and be constructive: what's the best alternatives for Win, Mac...
  • fallensammer:

    the file on click upload is 119mg onnly and is corrupted

Archives