Sign Up   |   Sign In  
Star Wars: The Bad BatchX-Men '97FBI: InternationalThe Good DinosaurArthur the KingGods of EgyptFBIFBI: Most WantedThe Big Door PrizeMR-9: Do or DieDrive-Away DollsHanky PankyShogunMonkey ManNCISLootAccidental TexanMy MercuryNCIS: Hawai'iThe NeighborhoodBob Hearts AbisholaDowntown OwlAftermathOne LifeTracker

Announcements

03/29

2024

No

Comments

Chicago P D S11E08 On Paper REPACK 720p AMZN WEB-DL DDP5 1 H 264-FLUX
[RR/NF/CU]
Size: 1.3GB mkv H264 (HIGH) / EAC3  HD  1280x720

Chicago P.D.
File Information
[img]http://lookpic.com/cdn/i2/t/0329202419200831-1.jpg[/img]
[img]http://lookpic.com/cdn/i2/t/0329202419200831-2.jpg[/img]
[img]http://lookpic.com/cdn/i2/t/0329202419200831-3.jpg[/img]

General
Unique ID                                : 186079985190900826915772131541581159494 (0x8BFDB398FAB3AA1571EA92BFDE7DDC46)
Complete name                            : Chicago P D S11E08 On Paper REPACK 720p AMZN WEB-DL DDP5 1 H 264-FLUX.mkv
Format                                   : Matroska
Format version                           : Version 4
File size                                : 1.27 GiB
Duration                                 : 42 min 27 s
Overall bit rate                         : 4 292 kb/s
Frame rate                               : 23.976 FPS
Writing application                      : mkvmerge v82.0 ('I'm The President') 64-bit
Writing library                          : libebml v1.4.5 + libmatroska v1.7.1

Video
ID                                       : 1
Format                                   : AVC
Format/Info                              : Advanced Video Codec
Format profile                           : High@L3.1
Format settings                          : CABAC / 4 Ref Frames
Format settings, CABAC                   : Yes
Format settings, Reference frames        : 4 frames
Codec ID                                 : V_MPEG4/ISO/AVC
Duration                                 : 42 min 27 s
Bit rate mode                            : Constant
Bit rate                                 : 3 649 kb/s
Nominal bit rate                         : 6 000 kb/s
Width                                    : 1 280 pixels
Height                                   : 720 pixels
Display aspect ratio                     : 16:9
Frame rate mode                          : Constant
Frame rate                               : 23.976 (24000/1001) FPS
Color space                              : YUV
Chroma subsampling                       : 4:2:0
Bit depth                                : 8 bits
Scan type                                : Progressive
Bits/(Pixel*Frame)                       : 0.165
Stream size                              : 1.08 GiB (85%)
Language                                 : English (US)
Default                                  : Yes
Forced                                   : No
Color range                              : Limited
Color primaries                          : BT.709
Transfer characteristics                 : BT.709
Matrix coefficients                      : BT.709

Audio
ID                                       : 2
Format                                   : E-AC-3
Format/Info                              : Enhanced AC-3
Commercial name                          : Dolby Digital Plus
Codec ID                                 : A_EAC3
Duration                                 : 42 min 27 s
Bit rate mode                            : Constant
Bit rate                                 : 640 kb/s
Channel(s)                               : 6 channels
Channel layout                           : L R C LFE Ls Rs
Sampling rate                            : 48.0 kHz
Frame rate                               : 31.250 FPS (1536 SPF)
Compression mode                         : Lossy
Stream size                              : 194 MiB (15%)
Language                                 : English
Service kind                             : Complete Main
Default                                  : Yes
Forced                                   : No

Text #1
ID                                       : 3
Format                                   : UTF-8
Codec ID                                 : S_TEXT/UTF8
Codec ID/Info                            : UTF-8 Plain Text
Duration                                 : 40 min 21 s
Bit rate                                 : 72 b/s
Frame rate                               : 0.302 FPS
Count of elements                        : 731
Stream size                              : 21.4 KiB (0%)
Language                                 : English (US)
Default                                  : No
Forced                                   : No

Text #2
ID                                       : 4
Format                                   : UTF-8
Codec ID                                 : S_TEXT/UTF8
Codec ID/Info                            : UTF-8 Plain Text
Duration                                 : 42 min 18 s
Bit rate                                 : 72 b/s
Frame rate                               : 0.318 FPS
Count of elements                        : 808
Stream size                              : 22.5 KiB (0%)
Title                                    : SDH
Language                                 : English (US)
Default                                  : No
Forced                                   : No

Menu
00:00:00.000                             : en:Scene 1
00:41:43.000                             : en:End Credits



Download
File Container: MKV
Video/Audio Codec: H264 (HIGH) EAC3
Video Resolution: 1280x720
Please Login to post a comment.
If you don't have any account, please Register.
  • Subscribe my Feeds
  • Facebook
Encoding Queue:  x264  x265

Latest Episodes

Popular Movies and TV Shows

  • Star Wars: The Bad Batch
  • X-Men '97
  • FBI: International
  • The Good Dinosaur
  • Arthur the King
  • Gods of Egypt
  • FBI
  • FBI: Most Wanted
  • The Big Door Prize
  • MR-9: Do or Die
  • Drive-Away Dolls
  • Hanky Panky
  • Shogun
  • Monkey Man
  • NCIS
  • Loot
  • Accidental Texan
  • My Mercury
  • NCIS: Hawai'i
  • The Neighborhood
  • Bob Hearts Abishola
  • Downtown Owl
  • Aftermath
  • One Life
  • Tracker

Recent Comments

  • Oscar2:

    Sorry, NITROFLARE links are dead, should've checked them first

    RAPIDGATOR links are OK

  • ReadyPlayerOne:

    THANK YOU

  • ReadyPlayerOne:

    THANK YOU

  • ReadyPlayerOne:

    THANK YOU

  • mentalityx:

    Thx dude.

  • 89M:

    NitroFlare's link is missing !!!
    Clicknupload's link is missing !!!

  • V4ND4L: May we get a ClicknUpload link for this, please. It's conspicuously missing for the team/size.
  • Bud:

    The file's half the size it should be & corrupted. Useless. Avoid.

  • mentalityx:

    Rad dude

  • mentalityx:

    Rad mate

  • waanaabe:

    I tried this file with 3 different players which all said they couldn't read the codec

  • Rosa: hi i have a question,this file size is 198mb,but on clickenupload is only 118mb is it right? what ha...
  • mike1204:

    Any reason why this episode is omitted from 'click'n'upload??

  • kellym2: I appreciate all the hard work the team does BUT there is no point in my paying for a Premium subscr...

Archives