Sign Up   |   Sign In  
Star Wars: The Bad BatchX-Men '97FBI: InternationalArthur the KingThe Good DinosaurFBIFBI: Most WantedThe Big Door PrizeGods of EgyptMR-9: Do or DieDrive-Away DollsShogunMonkey ManNCISLootAccidental TexanMy MercuryNCIS: Hawai'iThe NeighborhoodBob Hearts AbisholaDowntown OwlAftermathOne LifeTrackerThe Simpsons

Announcements

04/01

2024

1

Comments

Curb Your Enthusiasm S12E09 Ken-Kendra 720p AMZN WEB-DL DDP5 1 H 264-NTb
[RR/NF/CU]
Size: 1.1GB mkv H264 (HIGH) / EAC3  HD  1280x720

Curb Your Enthusiasm
File Information
[img]http://lookpic.com/cdn/i2/t/0401202404213987-1.jpg[/img]
[img]http://lookpic.com/cdn/i2/t/0401202404213987-2.jpg[/img]
[img]http://lookpic.com/cdn/i2/t/0401202404213987-3.jpg[/img]

General
Unique ID                                : 260353276044572587272157522735066177312 (0xC3DE379048D10F1501C7B8B1BACADF20)
Complete name                            : Curb.Your.Enthusiasm.S12E09.Ken-Kendra.720p.AMZN.WEB-DL.DDP5.1.H.264-NTb.mkv
Format                                   : Matroska
Format version                           : Version 4
File size                                : 1.06 GiB
Duration                                 : 34 min 31 s
Overall bit rate                         : 4 384 kb/s
Frame rate                               : 23.976 FPS
Writing application                      : mkvmerge v81.0 ('Milliontown') 64-bit
Writing library                          : libebml v1.4.4 + libmatroska v1.7.1

Video
ID                                       : 1
Format                                   : AVC
Format/Info                              : Advanced Video Codec
Format profile                           : High@L3.1
Format settings                          : CABAC / 4 Ref Frames
Format settings, CABAC                   : Yes
Format settings, Reference frames        : 4 frames
Codec ID                                 : V_MPEG4/ISO/AVC
Duration                                 : 34 min 31 s
Bit rate mode                            : Constant
Bit rate                                 : 3 741 kb/s
Nominal bit rate                         : 4 000 kb/s
Width                                    : 1 280 pixels
Height                                   : 720 pixels
Display aspect ratio                     : 16:9
Frame rate mode                          : Constant
Frame rate                               : 23.976 (24000/1001) FPS
Color space                              : YUV
Chroma subsampling                       : 4:2:0
Bit depth                                : 8 bits
Scan type                                : Progressive
Bits/(Pixel*Frame)                       : 0.169
Stream size                              : 924 MiB (85%)
Default                                  : Yes
Forced                                   : No
Color range                              : Limited
Color primaries                          : BT.709
Transfer characteristics                 : BT.709
Matrix coefficients                      : BT.709

Audio
ID                                       : 2
Format                                   : E-AC-3
Format/Info                              : Enhanced AC-3
Commercial name                          : Dolby Digital Plus
Codec ID                                 : A_EAC3
Duration                                 : 34 min 31 s
Bit rate mode                            : Constant
Bit rate                                 : 640 kb/s
Channel(s)                               : 6 channels
Channel layout                           : L R C LFE Ls Rs
Sampling rate                            : 48.0 kHz
Frame rate                               : 31.250 FPS (1536 SPF)
Compression mode                         : Lossy
Stream size                              : 158 MiB (15%)
Language                                 : English (US)
Service kind                             : Complete Main
Default                                  : Yes
Forced                                   : No

Text #1
ID                                       : 3
Format                                   : UTF-8
Codec ID                                 : S_TEXT/UTF8
Codec ID/Info                            : UTF-8 Plain Text
Duration                                 : 33 min 4 s
Bit rate                                 : 139 b/s
Frame rate                               : 0.473 FPS
Count of elements                        : 939
Stream size                              : 33.7 KiB (0%)
Language                                 : English (US)
Default                                  : No
Forced                                   : No

Text #2
ID                                       : 4
Format                                   : UTF-8
Codec ID                                 : S_TEXT/UTF8
Codec ID/Info                            : UTF-8 Plain Text
Duration                                 : 34 min 23 s
Bit rate                                 : 148 b/s
Frame rate                               : 0.470 FPS
Count of elements                        : 970
Stream size                              : 37.3 KiB (0%)
Title                                    : SDH
Language                                 : English (US)
Default                                  : No
Forced                                   : No

Text #3
ID                                       : 5
Format                                   : UTF-8
Codec ID                                 : S_TEXT/UTF8
Codec ID/Info                            : UTF-8 Plain Text
Duration                                 : 33 min 6 s
Bit rate                                 : 130 b/s
Frame rate                               : 0.483 FPS
Count of elements                        : 960
Stream size                              : 31.7 KiB (0%)
Language                                 : Spanish (Latin America)
Default                                  : No
Forced                                   : No

Text #4
ID                                       : 6
Format                                   : UTF-8
Codec ID                                 : S_TEXT/UTF8
Codec ID/Info                            : UTF-8 Plain Text
Duration                                 : 34 min 23 s
Bit rate                                 : 138 b/s
Frame rate                               : 0.480 FPS
Count of elements                        : 990
Stream size                              : 34.8 KiB (0%)
Title                                    : SDH
Language                                 : Spanish (Latin America)
Default                                  : No
Forced                                   : No



Download
File Container: MKV
Video/Audio Codec: H264 (HIGH) EAC3
Video Resolution: 1280x720

1 Response to "[RR/NF/CU] Curb Your Enthusiasm S12E09 Ken-Kendra 720p AMZN WEB-DL DDP5 1 H 264-NTb (1.1GB)"
04/01/24
07:13:23
ReadyPlayerOne

Thank You

Please Login to post a comment.
If you don't have any account, please Register.
  • Subscribe my Feeds
  • Facebook
Encoding Queue:  x264  x265

Latest Episodes

Popular Movies and TV Shows

  • Star Wars: The Bad Batch
  • X-Men '97
  • FBI: International
  • Arthur the King
  • The Good Dinosaur
  • FBI
  • FBI: Most Wanted
  • The Big Door Prize
  • Gods of Egypt
  • MR-9: Do or Die
  • Drive-Away Dolls
  • Shogun
  • Monkey Man
  • NCIS
  • Loot
  • Accidental Texan
  • My Mercury
  • NCIS: Hawai'i
  • The Neighborhood
  • Bob Hearts Abishola
  • Downtown Owl
  • Aftermath
  • One Life
  • Tracker
  • The Simpsons

Recent Comments

  • Oscar2:

    Sorry, NITROFLARE links are dead, should've checked them first

    RAPIDGATOR links are OK

  • ReadyPlayerOne:

    THANK YOU

  • ReadyPlayerOne:

    THANK YOU

  • ReadyPlayerOne:

    THANK YOU

  • mentalityx:

    Thx dude.

  • 89M:

    NitroFlare's link is missing !!!
    Clicknupload's link is missing !!!

  • V4ND4L: May we get a ClicknUpload link for this, please. It's conspicuously missing for the team/size.
  • Bud:

    The file's half the size it should be & corrupted. Useless. Avoid.

  • mentalityx:

    Rad dude

  • mentalityx:

    Rad mate

  • waanaabe:

    I tried this file with 3 different players which all said they couldn't read the codec

  • Rosa: hi i have a question,this file size is 198mb,but on clickenupload is only 118mb is it right? what ha...
  • mike1204:

    Any reason why this episode is omitted from 'click'n'upload??

  • kellym2: I appreciate all the hard work the team does BUT there is no point in my paying for a Premium subscr...

Archives