Sign Up   |   Sign In  
My Adventures with SupermanChristmas Is CanceledThe Body StealersSatan's ChildrenTop Chef: The Dish with KishCosta!!Mayor of KingstownInterview with the VampireHotel CocaineDaaaaaali!OctopussyLook to the LightLadies in BlackBilly the KidWalkerKung Fu HustleLicence to KillThere's Something About MaryWWE NXTThe Loud HouseThe Bold and the BeautifulVice News Presents: Mass Shooting AmericaInside Out 2My Sexual Abuse: The SitcomThe Daily Show

Announcements

05/15

2024

1

Comments

Dark Matter 2024 S01E03 The Box 1080p ATVP WEB-DL DDP5 1 Atmos H 264-FLUX
[RR/NF]
Size: 3.8GB mkv H264 (HIGH) / EAC3  HD  1920x960

Dark Matter
File Information
[img]http://lookpic.com/cdn/i2/t/0515202403243944-1.jpg[/img]
[img]http://lookpic.com/cdn/i2/t/0515202403243944-2.jpg[/img]
[img]http://lookpic.com/cdn/i2/t/0515202403243944-3.jpg[/img]

General
Unique ID                                : 6676225099859688218431910695988310490 (0x505CB4F9C9BD5D3810781D3653B31DA)
Complete name                            : Dark Matter 2024 S01E03 The Box 1080p ATVP WEB-DL DDP5 1 Atmos H 264-FLUX.mkv
Format                                   : Matroska
Format version                           : Version 4
File size                                : 3.75 GiB
Duration                                 : 49 min 36 s
Overall bit rate                         : 10.8 Mb/s
Frame rate                               : 23.976 FPS
Writing application                      : mkvmerge v83.0 ('Circle Of Friends') 64-bit
Writing library                          : libebml v1.4.5 + libmatroska v1.7.1

Video
ID                                       : 1
Format                                   : AVC
Format/Info                              : Advanced Video Codec
Format profile                           : High@L4
Format settings                          : CABAC / 4 Ref Frames
Format settings, CABAC                   : Yes
Format settings, Reference frames        : 4 frames
Codec ID                                 : V_MPEG4/ISO/AVC
Duration                                 : 49 min 36 s
Bit rate                                 : 10.1 Mb/s
Width                                    : 1 920 pixels
Height                                   : 960 pixels
Display aspect ratio                     : 2.000
Frame rate mode                          : Constant
Frame rate                               : 23.976 (24000/1001) FPS
Color space                              : YUV
Chroma subsampling                       : 4:2:0
Bit depth                                : 8 bits
Scan type                                : Progressive
Bits/(Pixel*Frame)                       : 0.228
Stream size                              : 3.48 GiB (93%)
Language                                 : English
Default                                  : Yes
Forced                                   : No
Color range                              : Limited
Color primaries                          : BT.709
Transfer characteristics                 : BT.709
Matrix coefficients                      : BT.709

Audio
ID                                       : 2
Format                                   : E-AC-3 JOC
Format/Info                              : Enhanced AC-3 with Joint Object Coding
Commercial name                          : Dolby Digital Plus with Dolby Atmos
Codec ID                                 : A_EAC3
Duration                                 : 49 min 36 s
Bit rate mode                            : Constant
Bit rate                                 : 768 kb/s
Channel(s)                               : 6 channels
Channel layout                           : L R C LFE Ls Rs
Sampling rate                            : 48.0 kHz
Frame rate                               : 31.250 FPS (1536 SPF)
Compression mode                         : Lossy
Stream size                              : 273 MiB (7%)
Language                                 : English
Service kind                             : Complete Main
Default                                  : Yes
Forced                                   : No
Complexity index                         : 16
Number of dynamic objects                : 15
Bed channel count                        : 1 channel
Bed channel configuration                : LFE

Text #1
ID                                       : 3
Format                                   : UTF-8
Codec ID                                 : S_TEXT/UTF8
Codec ID/Info                            : UTF-8 Plain Text
Duration                                 : 44 min 37 s
Bit rate                                 : 54 b/s
Frame rate                               : 0.213 FPS
Count of elements                        : 570
Stream size                              : 17.9 KiB (0%)
Language                                 : English
Default                                  : No
Forced                                   : No

Text #2
ID                                       : 4
Format                                   : UTF-8
Codec ID                                 : S_TEXT/UTF8
Codec ID/Info                            : UTF-8 Plain Text
Duration                                 : 46 min 45 s
Bit rate                                 : 63 b/s
Frame rate                               : 0.235 FPS
Count of elements                        : 660
Stream size                              : 21.6 KiB (0%)
Title                                    : SDH
Language                                 : English
Default                                  : No
Forced                                   : No

Text #3
ID                                       : 5
Format                                   : UTF-8
Codec ID                                 : S_TEXT/UTF8
Codec ID/Info                            : UTF-8 Plain Text
Duration                                 : 48 min 27 s
Bit rate                                 : 77 b/s
Frame rate                               : 0.199 FPS
Count of elements                        : 580
Stream size                              : 27.5 KiB (0%)
Language                                 : Arabic
Default                                  : No
Forced                                   : No

Text #4
ID                                       : 6
Format                                   : UTF-8
Codec ID                                 : S_TEXT/UTF8
Codec ID/Info                            : UTF-8 Plain Text
Duration                                 : 48 min 27 s
Bit rate                                 : 74 b/s
Frame rate                               : 0.165 FPS
Count of elements                        : 480
Stream size                              : 26.4 KiB (0%)
Language                                 : Bulgarian
Default                                  : No
Forced                                   : No

Text #5
ID                                       : 7
Format                                   : UTF-8
Codec ID                                 : S_TEXT/UTF8
Codec ID/Info                            : UTF-8 Plain Text
Duration                                 : 48 min 27 s
Bit rate                                 : 46 b/s
Frame rate                               : 0.200 FPS
Count of elements                        : 581
Stream size                              : 16.5 KiB (0%)
Title                                    : Simplified
Language                                 : Chinese (Simplified)
Default                                  : No
Forced                                   : No

Text #6
ID                                       : 8
Format                                   : UTF-8
Codec ID                                 : S_TEXT/UTF8
Codec ID/Info                            : UTF-8 Plain Text
Duration                                 : 48 min 27 s
Bit rate                                 : 45 b/s
Frame rate                               : 0.200 FPS
Count of elements                        : 582
Stream size                              : 16.0 KiB (0%)
Title                                    : Traditional
Language                                 : Chinese (Traditional)
Default                                  : No
Forced                                   : No

Text #7
ID                                       : 9
Format                                   : UTF-8
Codec ID                                 : S_TEXT/UTF8
Codec ID/Info                            : UTF-8 Plain Text
Duration                                 : 48 min 27 s
Bit rate                                 : 44 b/s
Frame rate                               : 0.191 FPS
Count of elements                        : 554
Stream size                              : 15.9 KiB (0%)
Language                                 : Czech
Default                                  : No
Forced                                   : No

Text #8
ID                                       : 10
Format                                   : UTF-8
Codec ID                                 : S_TEXT/UTF8
Codec ID/Info                            : UTF-8 Plain Text
Duration                                 : 48 min 27 s
Bit rate                                 : 45 b/s
Frame rate                               : 0.163 FPS
Count of elements                        : 474
Stream size                              : 16.0 KiB (0%)
Language                                 : Danish
Default                                  : No
Forced                                   : No

Text #9
ID                                       : 11
Format                                   : UTF-8
Codec ID                                 : S_TEXT/UTF8
Codec ID/Info                            : UTF-8 Plain Text
Duration                                 : 48 min 26 s
Bit rate                                 : 48 b/s
Frame rate                               : 0.192 FPS
Count of elements                        : 557
Stream size                              : 17.4 KiB (0%)
Language                                 : German
Default                                  : No
Forced                                   : No

Text #10
ID                                       : 12
Format                                   : UTF-8
Codec ID                                 : S_TEXT/UTF8
Codec ID/Info                            : UTF-8 Plain Text
Duration                                 : 48 min 27 s
Bit rate                                 : 82 b/s
Frame rate                               : 0.193 FPS
Count of elements                        : 561
Stream size                              : 29.2 KiB (0%)
Language                                 : Greek
Default                                  : No
Forced                                   : No

Text #11
ID                                       : 13
Format                                   : UTF-8
Codec ID                                 : S_TEXT/UTF8
Codec ID/Info                            : UTF-8 Plain Text
Duration                                 : 48 min 27 s
Bit rate                                 : 50 b/s
Frame rate                               : 0.199 FPS
Count of elements                        : 580
Stream size                              : 18.1 KiB (0%)
Title                                    : Latin American
Language                                 : Spanish (Latin America)
Default                                  : No
Forced                                   : No

Text #12
ID                                       : 14
Format                                   : UTF-8
Codec ID                                 : S_TEXT/UTF8
Codec ID/Info                            : UTF-8 Plain Text
Duration                                 : 48 min 27 s
Bit rate                                 : 48 b/s
Frame rate                               : 0.202 FPS
Count of elements                        : 587
Stream size                              : 17.1 KiB (0%)
Language                                 : Spanish (ES)
Default                                  : No
Forced                                   : No

Text #13
ID                                       : 15
Format                                   : UTF-8
Codec ID                                 : S_TEXT/UTF8
Codec ID/Info                            : UTF-8 Plain Text
Duration                                 : 48 min 27 s
Bit rate                                 : 48 b/s
Frame rate                               : 0.196 FPS
Count of elements                        : 571
Stream size                              : 17.1 KiB (0%)
Language                                 : Estonian
Default                                  : No
Forced                                   : No

Text #14
ID                                       : 16
Format                                   : UTF-8
Codec ID                                 : S_TEXT/UTF8
Codec ID/Info                            : UTF-8 Plain Text
Duration                                 : 48 min 27 s
Bit rate                                 : 51 b/s
Frame rate                               : 0.198 FPS
Count of elements                        : 577
Stream size                              : 18.3 KiB (0%)
Language                                 : Finnish
Default                                  : No
Forced                                   : No

Text #15
ID                                       : 17
Format                                   : UTF-8
Codec ID                                 : S_TEXT/UTF8
Codec ID/Info                            : UTF-8 Plain Text
Duration                                 : 48 min 25 s
Bit rate                                 : 46 b/s
Frame rate                               : 0.219 FPS
Count of elements                        : 635
Stream size                              : 16.3 KiB (0%)
Title                                    : Canadian
Language                                 : French (CA)
Default                                  : No
Forced                                   : No

Text #16
ID                                       : 18
Format                                   : UTF-8
Codec ID                                 : S_TEXT/UTF8
Codec ID/Info                            : UTF-8 Plain Text
Duration                                 : 48 min 25 s
Bit rate                                 : 45 b/s
Frame rate                               : 0.218 FPS
Count of elements                        : 634
Stream size                              : 16.3 KiB (0%)
Language                                 : French (FR)
Default                                  : No
Forced                                   : No

Text #17
ID                                       : 19
Format                                   : UTF-8
Codec ID                                 : S_TEXT/UTF8
Codec ID/Info                            : UTF-8 Plain Text
Duration                                 : 48 min 27 s
Bit rate                                 : 73 b/s
Frame rate                               : 0.200 FPS
Count of elements                        : 581
Stream size                              : 26.0 KiB (0%)
Language                                 : Hebrew
Default                                  : No
Forced                                   : No

Text #18
ID                                       : 20
Format                                   : UTF-8
Codec ID                                 : S_TEXT/UTF8
Codec ID/Info                            : UTF-8 Plain Text
Duration                                 : 48 min 27 s
Bit rate                                 : 136 b/s
Frame rate                               : 0.200 FPS
Count of elements                        : 583
Stream size                              : 48.4 KiB (0%)
Language                                 : Hindi
Default                                  : No
Forced                                   : No

Text #19
ID                                       : 21
Format                                   : UTF-8
Codec ID                                 : S_TEXT/UTF8
Codec ID/Info                            : UTF-8 Plain Text
Duration                                 : 48 min 27 s
Bit rate                                 : 49 b/s
Frame rate                               : 0.196 FPS
Count of elements                        : 571
Stream size                              : 17.5 KiB (0%)
Language                                 : Hungarian
Default                                  : No
Forced                                   : No

Text #20
ID                                       : 22
Format                                   : UTF-8
Codec ID                                 : S_TEXT/UTF8
Codec ID/Info                            : UTF-8 Plain Text
Duration                                 : 48 min 27 s
Bit rate                                 : 46 b/s
Frame rate                               : 0.198 FPS
Count of elements                        : 576
Stream size                              : 16.5 KiB (0%)
Language                                 : Indonesian
Default                                  : No
Forced                                   : No

Text #21
ID                                       : 23
Format                                   : UTF-8
Codec ID                                 : S_TEXT/UTF8
Codec ID/Info                            : UTF-8 Plain Text
Duration                                 : 47 min 42 s
Bit rate                                 : 48 b/s
Frame rate                               : 0.200 FPS
Count of elements                        : 572
Stream size                              : 16.9 KiB (0%)
Language                                 : Italian
Default                                  : No
Forced                                   : No

Text #22
ID                                       : 24
Format                                   : UTF-8
Codec ID                                 : S_TEXT/UTF8
Codec ID/Info                            : UTF-8 Plain Text
Duration                                 : 48 min 27 s
Bit rate                                 : 41 b/s
Frame rate                               : 0.186 FPS
Count of elements                        : 542
Stream size                              : 14.8 KiB (0%)
Language                                 : Japanese
Default                                  : No
Forced                                   : No

Text #23
ID                                       : 25
Format                                   : UTF-8
Codec ID                                 : S_TEXT/UTF8
Codec ID/Info                            : UTF-8 Plain Text
Duration                                 : 48 min 27 s
Bit rate                                 : 52 b/s
Frame rate                               : 0.200 FPS
Count of elements                        : 581
Stream size                              : 18.5 KiB (0%)
Language                                 : Korean
Default                                  : No
Forced                                   : No

Text #24
ID                                       : 26
Format                                   : UTF-8
Codec ID                                 : S_TEXT/UTF8
Codec ID/Info                            : UTF-8 Plain Text
Duration                                 : 48 min 27 s
Bit rate                                 : 50 b/s
Frame rate                               : 0.198 FPS
Count of elements                        : 576
Stream size                              : 17.8 KiB (0%)
Language                                 : Lithuanian
Default                                  : No
Forced                                   : No

Text #25
ID                                       : 27
Format                                   : UTF-8
Codec ID                                 : S_TEXT/UTF8
Codec ID/Info                            : UTF-8 Plain Text
Duration                                 : 48 min 27 s
Bit rate                                 : 50 b/s
Frame rate                               : 0.199 FPS
Count of elements                        : 578
Stream size                              : 18.1 KiB (0%)
Language                                 : Latvian
Default                                  : No
Forced                                   : No

Text #26
ID                                       : 28
Format                                   : UTF-8
Codec ID                                 : S_TEXT/UTF8
Codec ID/Info                            : UTF-8 Plain Text
Duration                                 : 48 min 27 s
Bit rate                                 : 47 b/s
Frame rate                               : 0.198 FPS
Count of elements                        : 576
Stream size                              : 16.9 KiB (0%)
Language                                 : Malay
Default                                  : No
Forced                                   : No

Text #27
ID                                       : 29
Format                                   : UTF-8
Codec ID                                 : S_TEXT/UTF8
Codec ID/Info                            : UTF-8 Plain Text
Duration                                 : 48 min 27 s
Bit rate                                 : 45 b/s
Frame rate                               : 0.151 FPS
Count of elements                        : 440
Stream size                              : 16.0 KiB (0%)
Language                                 : Dutch
Default                                  : No
Forced                                   : No

Text #28
ID                                       : 30
Format                                   : UTF-8
Codec ID                                 : S_TEXT/UTF8
Codec ID/Info                            : UTF-8 Plain Text
Duration                                 : 48 min 27 s
Bit rate                                 : 44 b/s
Frame rate                               : 0.181 FPS
Count of elements                        : 527
Stream size                              : 15.7 KiB (0%)
Language                                 : Norwegian
Default                                  : No
Forced                                   : No

Text #29
ID                                       : 31
Format                                   : UTF-8
Codec ID                                 : S_TEXT/UTF8
Codec ID/Info                            : UTF-8 Plain Text
Duration                                 : 48 min 27 s
Bit rate                                 : 48 b/s
Frame rate                               : 0.196 FPS
Count of elements                        : 569
Stream size                              : 17.1 KiB (0%)
Language                                 : Polish
Default                                  : No
Forced                                   : No

Text #30
ID                                       : 32
Format                                   : UTF-8
Codec ID                                 : S_TEXT/UTF8
Codec ID/Info                            : UTF-8 Plain Text
Duration                                 : 48 min 27 s
Bit rate                                 : 49 b/s
Frame rate                               : 0.197 FPS
Count of elements                        : 573
Stream size                              : 17.5 KiB (0%)
Language                                 : Portuguese
Default                                  : No
Forced                                   : No

Text #31
ID                                       : 33
Format                                   : UTF-8
Codec ID                                 : S_TEXT/UTF8
Codec ID/Info                            : UTF-8 Plain Text
Duration                                 : 48 min 27 s
Bit rate                                 : 48 b/s
Frame rate                               : 0.187 FPS
Count of elements                        : 545
Stream size                              : 17.2 KiB (0%)
Title                                    : Brazilian
Language                                 : Portuguese (BR)
Default                                  : No
Forced                                   : No

Text #32
ID                                       : 34
Format                                   : UTF-8
Codec ID                                 : S_TEXT/UTF8
Codec ID/Info                            : UTF-8 Plain Text
Duration                                 : 48 min 27 s
Bit rate                                 : 77 b/s
Frame rate                               : 0.200 FPS
Count of elements                        : 582
Stream size                              : 27.4 KiB (0%)
Language                                 : Russian
Default                                  : No
Forced                                   : No

Text #33
ID                                       : 35
Format                                   : UTF-8
Codec ID                                 : S_TEXT/UTF8
Codec ID/Info                            : UTF-8 Plain Text
Duration                                 : 48 min 27 s
Bit rate                                 : 47 b/s
Frame rate                               : 0.198 FPS
Count of elements                        : 575
Stream size                              : 16.8 KiB (0%)
Language                                 : Slovak
Default                                  : No
Forced                                   : No

Text #34
ID                                       : 36
Format                                   : UTF-8
Codec ID                                 : S_TEXT/UTF8
Codec ID/Info                            : UTF-8 Plain Text
Duration                                 : 48 min 27 s
Bit rate                                 : 41 b/s
Frame rate                               : 0.174 FPS
Count of elements                        : 507
Stream size                              : 14.6 KiB (0%)
Language                                 : Slovenian
Default                                  : No
Forced                                   : No

Text #35
ID                                       : 37
Format                                   : UTF-8
Codec ID                                 : S_TEXT/UTF8
Codec ID/Info                            : UTF-8 Plain Text
Duration                                 : 48 min 27 s
Bit rate                                 : 50 b/s
Frame rate                               : 0.194 FPS
Count of elements                        : 563
Stream size                              : 18.0 KiB (0%)
Language                                 : Swedish
Default                                  : No
Forced                                   : No

Text #36
ID                                       : 38
Format                                   : UTF-8
Codec ID                                 : S_TEXT/UTF8
Codec ID/Info                            : UTF-8 Plain Text
Duration                                 : 48 min 27 s
Bit rate                                 : 167 b/s
Frame rate                               : 0.200 FPS
Count of elements                        : 582
Stream size                              : 59.4 KiB (0%)
Language                                 : Tamil
Default                                  : No
Forced                                   : No

Text #37
ID                                       : 39
Format                                   : UTF-8
Codec ID                                 : S_TEXT/UTF8
Codec ID/Info                            : UTF-8 Plain Text
Duration                                 : 48 min 27 s
Bit rate                                 : 152 b/s
Frame rate                               : 0.200 FPS
Count of elements                        : 582
Stream size                              : 54.0 KiB (0%)
Language                                 : Telugu
Default                                  : No
Forced                                   : No

Text #38
ID                                       : 40
Format                                   : UTF-8
Codec ID                                 : S_TEXT/UTF8
Codec ID/Info                            : UTF-8 Plain Text
Duration                                 : 48 min 27 s
Bit rate                                 : 117 b/s
Frame rate                               : 0.200 FPS
Count of elements                        : 581
Stream size                              : 41.7 KiB (0%)
Language                                 : Thai
Default                                  : No
Forced                                   : No

Text #39
ID                                       : 41
Format                                   : UTF-8
Codec ID                                 : S_TEXT/UTF8
Codec ID/Info                            : UTF-8 Plain Text
Duration                                 : 48 min 27 s
Bit rate                                 : 51 b/s
Frame rate                               : 0.189 FPS
Count of elements                        : 551
Stream size                              : 18.2 KiB (0%)
Language                                 : Turkish
Default                                  : No
Forced                                   : No

Text #40
ID                                       : 42
Format                                   : UTF-8
Codec ID                                 : S_TEXT/UTF8
Codec ID/Info                            : UTF-8 Plain Text
Duration                                 : 48 min 27 s
Bit rate                                 : 76 b/s
Frame rate                               : 0.200 FPS
Count of elements                        : 581
Stream size                              : 27.2 KiB (0%)
Language                                 : Ukrainian
Default                                  : No
Forced                                   : No

Text #41
ID                                       : 43
Format                                   : UTF-8
Codec ID                                 : S_TEXT/UTF8
Codec ID/Info                            : UTF-8 Plain Text
Duration                                 : 48 min 27 s
Bit rate                                 : 65 b/s
Frame rate                               : 0.199 FPS
Count of elements                        : 579
Stream size                              : 23.1 KiB (0%)
Language                                 : Vietnamese
Default                                  : No
Forced                                   : No

Text #42
ID                                       : 44
Format                                   : UTF-8
Codec ID                                 : S_TEXT/UTF8
Codec ID/Info                            : UTF-8 Plain Text
Duration                                 : 48 min 27 s
Bit rate                                 : 44 b/s
Frame rate                               : 0.200 FPS
Count of elements                        : 582
Stream size                              : 15.8 KiB (0%)
Title                                    : Traditional
Language                                 : Cantonese (Hant)
Default                                  : No
Forced                                   : No

Menu
00:00:00.000                             : en:Studio Logo
00:00:08.843                             : en:Recap
00:01:29.132                             : en:Scene 01
00:01:36.173                             : en:Intro
00:02:30.548                             : en:Scene 02
00:48:31.791                             : en:Credits



Download
File Container: MKV
Video/Audio Codec: H264 (HIGH) EAC3
Video Resolution: 1920x960

1 Response to "[RR/NF] Dark Matter 2024 S01E03 The Box 1080p ATVP WEB-DL DDP5 1 Atmos H 264-FLUX (3.8GB)"
05/15/24
03:57:53
ReadyPlayerOne

Thank you!

Please Login to post a comment.
If you don't have any account, please Register.
  • Subscribe my Feeds
  • Facebook
Encoding Queue:  x264  x265

Latest Episodes

Popular Movies and TV Shows

  • My Adventures with Superman
  • Christmas Is Canceled
  • The Body Stealers
  • Satan's Children
  • Top Chef: The Dish with Kish
  • Costa!!
  • Mayor of Kingstown
  • Interview with the Vampire
  • Hotel Cocaine
  • Daaaaaali!
  • Octopussy
  • Look to the Light
  • Ladies in Black
  • Billy the Kid
  • Walker
  • Kung Fu Hustle
  • Licence to Kill
  • There's Something About Mary
  • WWE NXT
  • The Loud House
  • The Bold and the Beautiful
  • Vice News Presents: Mass Shooting America
  • Inside Out 2
  • My Sexual Abuse: The Sitcom
  • The Daily Show

Recent Comments

Archives