Sign Up   |   Sign In  
The BoysEvilBridgertonBratsMower MinionsGirlfriend's DayWWE NXTWalkerCriminal MindsLamp LifeFentasyThe Artifice GirlThe AcolyteDark MatterPresumed InnocentIn the Line of FireThe BraidCabriniFBI: Most WantedThe Big Door PrizeWWE RawThe PrimevalsOriginMysteries of the Terracotta WarriorsThe Daily Show

Announcements

05/23

2024

1

Comments

Dark Matter 2024 S01E04 The Corridor 720p ATVP WEB-DL DDP5 1 H 264-NTb
[RR/NF/CU]
Size: 1.5GB mkv H264 (HIGH) / EAC3  HD  1356x678

Dark Matter
File Information
[img]http://lookpic.com/cdn/i2/t/0523202400341959-1.jpg[/img]
[img]http://lookpic.com/cdn/i2/t/0523202400341959-2.jpg[/img]
[img]http://lookpic.com/cdn/i2/t/0523202400341959-3.jpg[/img]

General
Unique ID                                : 55755307418292600179082725425750020945 (0x29F214E47E71A41AD6000B0D25A51351)
Complete name                            : Dark Matter 2024 S01E04 The Corridor 720p ATVP WEB-DL DDP5 1 H 264-NTb.mkv
Format                                   : Matroska
Format version                           : Version 4
File size                                : 1.52 GiB
Duration                                 : 59 min 49 s
Overall bit rate                         : 3 649 kb/s
Frame rate                               : 23.976 FPS
Writing application                      : mkvmerge v84.0 ('Sleeper') 64-bit
Writing library                          : libebml v1.4.5 + libmatroska v1.7.1

Video
ID                                       : 1
Format                                   : AVC
Format/Info                              : Advanced Video Codec
Format profile                           : High@L3.2
Format settings                          : CABAC / 5 Ref Frames
Format settings, CABAC                   : Yes
Format settings, Reference frames        : 5 frames
Codec ID                                 : V_MPEG4/ISO/AVC
Duration                                 : 59 min 49 s
Bit rate                                 : 2 875 kb/s
Width                                    : 1 356 pixels
Height                                   : 678 pixels
Display aspect ratio                     : 2.000
Frame rate mode                          : Constant
Frame rate                               : 23.976 (24000/1001) FPS
Color space                              : YUV
Chroma subsampling                       : 4:2:0
Bit depth                                : 8 bits
Scan type                                : Progressive
Bits/(Pixel*Frame)                       : 0.130
Stream size                              : 1.20 GiB (79%)
Default                                  : Yes
Forced                                   : No
Color range                              : Limited
Color primaries                          : BT.709
Transfer characteristics                 : BT.709
Matrix coefficients                      : BT.709

Audio
ID                                       : 2
Format                                   : E-AC-3 JOC
Format/Info                              : Enhanced AC-3 with Joint Object Coding
Commercial name                          : Dolby Digital Plus with Dolby Atmos
Codec ID                                 : A_EAC3
Duration                                 : 59 min 49 s
Bit rate mode                            : Constant
Bit rate                                 : 768 kb/s
Channel(s)                               : 6 channels
Channel layout                           : L R C LFE Ls Rs
Sampling rate                            : 48.0 kHz
Frame rate                               : 31.250 FPS (1536 SPF)
Compression mode                         : Lossy
Stream size                              : 329 MiB (21%)
Language                                 : English
Service kind                             : Complete Main
Default                                  : Yes
Forced                                   : No
Complexity index                         : 16
Number of dynamic objects                : 15
Bed channel count                        : 1 channel
Bed channel configuration                : LFE

Text #1
ID                                       : 3
Format                                   : UTF-8
Codec ID                                 : S_TEXT/UTF8
Codec ID/Info                            : UTF-8 Plain Text
Duration                                 : 56 min 50 s
Bit rate                                 : 38 b/s
Frame rate                               : 0.174 FPS
Count of elements                        : 595
Stream size                              : 16.0 KiB (0%)
Language                                 : English
Default                                  : No
Forced                                   : No

Text #2
ID                                       : 4
Format                                   : UTF-8
Codec ID                                 : S_TEXT/UTF8
Codec ID/Info                            : UTF-8 Plain Text
Duration                                 : 58 min 16 s
Bit rate                                 : 46 b/s
Frame rate                               : 0.217 FPS
Count of elements                        : 757
Stream size                              : 19.9 KiB (0%)
Title                                    : SDH
Language                                 : English
Default                                  : No
Forced                                   : No

Text #3
ID                                       : 5
Format                                   : UTF-8
Codec ID                                 : S_TEXT/UTF8
Codec ID/Info                            : UTF-8 Plain Text
Duration                                 : 59 min 27 s
Bit rate                                 : 52 b/s
Frame rate                               : 0.167 FPS
Count of elements                        : 596
Stream size                              : 22.9 KiB (0%)
Language                                 : Arabic
Default                                  : No
Forced                                   : No

Text #4
ID                                       : 6
Format                                   : UTF-8
Codec ID                                 : S_TEXT/UTF8
Codec ID/Info                            : UTF-8 Plain Text
Duration                                 : 59 min 27 s
Bit rate                                 : 57 b/s
Frame rate                               : 0.130 FPS
Count of elements                        : 464
Stream size                              : 25.2 KiB (0%)
Language                                 : Bulgarian
Default                                  : No
Forced                                   : No

Text #5
ID                                       : 7
Format                                   : UTF-8
Codec ID                                 : S_TEXT/UTF8
Codec ID/Info                            : UTF-8 Plain Text
Duration                                 : 59 min 27 s
Bit rate                                 : 35 b/s
Frame rate                               : 0.168 FPS
Count of elements                        : 600
Stream size                              : 15.3 KiB (0%)
Title                                    : Chinese (Simplified)
Language                                 : Mandarin (Hans)
Default                                  : No
Forced                                   : No

Text #6
ID                                       : 8
Format                                   : UTF-8
Codec ID                                 : S_TEXT/UTF8
Codec ID/Info                            : UTF-8 Plain Text
Duration                                 : 59 min 27 s
Bit rate                                 : 33 b/s
Frame rate                               : 0.168 FPS
Count of elements                        : 601
Stream size                              : 14.4 KiB (0%)
Title                                    : Chinese (Traditional)
Language                                 : Mandarin (Hant)
Default                                  : No
Forced                                   : No

Text #7
ID                                       : 9
Format                                   : UTF-8
Codec ID                                 : S_TEXT/UTF8
Codec ID/Info                            : UTF-8 Plain Text
Duration                                 : 59 min 27 s
Bit rate                                 : 34 b/s
Frame rate                               : 0.156 FPS
Count of elements                        : 556
Stream size                              : 14.9 KiB (0%)
Language                                 : Czech
Default                                  : No
Forced                                   : No

Text #8
ID                                       : 10
Format                                   : UTF-8
Codec ID                                 : S_TEXT/UTF8
Codec ID/Info                            : UTF-8 Plain Text
Duration                                 : 59 min 27 s
Bit rate                                 : 34 b/s
Frame rate                               : 0.138 FPS
Count of elements                        : 491
Stream size                              : 15.1 KiB (0%)
Language                                 : Danish
Default                                  : No
Forced                                   : No

Text #9
ID                                       : 11
Format                                   : UTF-8
Codec ID                                 : S_TEXT/UTF8
Codec ID/Info                            : UTF-8 Plain Text
Duration                                 : 59 min 18 s
Bit rate                                 : 35 b/s
Frame rate                               : 0.161 FPS
Count of elements                        : 573
Stream size                              : 15.3 KiB (0%)
Language                                 : German
Default                                  : No
Forced                                   : No

Text #10
ID                                       : 12
Format                                   : UTF-8
Codec ID                                 : S_TEXT/UTF8
Codec ID/Info                            : UTF-8 Plain Text
Duration                                 : 59 min 27 s
Bit rate                                 : 62 b/s
Frame rate                               : 0.155 FPS
Count of elements                        : 554
Stream size                              : 27.2 KiB (0%)
Language                                 : Greek
Default                                  : No
Forced                                   : No

Text #11
ID                                       : 13
Format                                   : UTF-8
Codec ID                                 : S_TEXT/UTF8
Codec ID/Info                            : UTF-8 Plain Text
Duration                                 : 59 min 27 s
Bit rate                                 : 37 b/s
Frame rate                               : 0.169 FPS
Count of elements                        : 604
Stream size                              : 16.3 KiB (0%)
Title                                    : Spanish (Latin America)
Language                                 : Spanish (Latin America)
Default                                  : No
Forced                                   : No

Text #12
ID                                       : 14
Format                                   : UTF-8
Codec ID                                 : S_TEXT/UTF8
Codec ID/Info                            : UTF-8 Plain Text
Duration                                 : 59 min 27 s
Bit rate                                 : 35 b/s
Frame rate                               : 0.166 FPS
Count of elements                        : 593
Stream size                              : 15.5 KiB (0%)
Title                                    : Spanish (Spain)
Language                                 : Spanish (ES)
Default                                  : No
Forced                                   : No

Text #13
ID                                       : 15
Format                                   : UTF-8
Codec ID                                 : S_TEXT/UTF8
Codec ID/Info                            : UTF-8 Plain Text
Duration                                 : 59 min 27 s
Bit rate                                 : 35 b/s
Frame rate                               : 0.167 FPS
Count of elements                        : 594
Stream size                              : 15.6 KiB (0%)
Language                                 : Estonian
Default                                  : No
Forced                                   : No

Text #14
ID                                       : 16
Format                                   : UTF-8
Codec ID                                 : S_TEXT/UTF8
Codec ID/Info                            : UTF-8 Plain Text
Duration                                 : 59 min 27 s
Bit rate                                 : 38 b/s
Frame rate                               : 0.168 FPS
Count of elements                        : 598
Stream size                              : 16.7 KiB (0%)
Language                                 : Finnish
Default                                  : No
Forced                                   : No

Text #15
ID                                       : 17
Format                                   : UTF-8
Codec ID                                 : S_TEXT/UTF8
Codec ID/Info                            : UTF-8 Plain Text
Duration                                 : 59 min 25 s
Bit rate                                 : 34 b/s
Frame rate                               : 0.170 FPS
Count of elements                        : 606
Stream size                              : 15.1 KiB (0%)
Title                                    : French (Canada)
Language                                 : French (CA)
Default                                  : No
Forced                                   : No

Text #16
ID                                       : 18
Format                                   : UTF-8
Codec ID                                 : S_TEXT/UTF8
Codec ID/Info                            : UTF-8 Plain Text
Duration                                 : 59 min 25 s
Bit rate                                 : 34 b/s
Frame rate                               : 0.170 FPS
Count of elements                        : 605
Stream size                              : 15.1 KiB (0%)
Title                                    : French (France)
Language                                 : French (FR)
Default                                  : No
Forced                                   : No

Text #17
ID                                       : 19
Format                                   : UTF-8
Codec ID                                 : S_TEXT/UTF8
Codec ID/Info                            : UTF-8 Plain Text
Duration                                 : 59 min 27 s
Bit rate                                 : 51 b/s
Frame rate                               : 0.168 FPS
Count of elements                        : 600
Stream size                              : 22.4 KiB (0%)
Language                                 : Hebrew
Default                                  : No
Forced                                   : No

Text #18
ID                                       : 20
Format                                   : UTF-8
Codec ID                                 : S_TEXT/UTF8
Codec ID/Info                            : UTF-8 Plain Text
Duration                                 : 59 min 27 s
Bit rate                                 : 100 b/s
Frame rate                               : 0.168 FPS
Count of elements                        : 601
Stream size                              : 43.8 KiB (0%)
Language                                 : Hindi
Default                                  : No
Forced                                   : No

Text #19
ID                                       : 21
Format                                   : UTF-8
Codec ID                                 : S_TEXT/UTF8
Codec ID/Info                            : UTF-8 Plain Text
Duration                                 : 59 min 27 s
Bit rate                                 : 36 b/s
Frame rate                               : 0.167 FPS
Count of elements                        : 597
Stream size                              : 15.8 KiB (0%)
Language                                 : Hungarian
Default                                  : No
Forced                                   : No

Text #20
ID                                       : 22
Format                                   : UTF-8
Codec ID                                 : S_TEXT/UTF8
Codec ID/Info                            : UTF-8 Plain Text
Duration                                 : 59 min 27 s
Bit rate                                 : 35 b/s
Frame rate                               : 0.168 FPS
Count of elements                        : 599
Stream size                              : 15.4 KiB (0%)
Language                                 : Indonesian
Default                                  : No
Forced                                   : No

Text #21
ID                                       : 23
Format                                   : UTF-8
Codec ID                                 : S_TEXT/UTF8
Codec ID/Info                            : UTF-8 Plain Text
Duration                                 : 58 min 47 s
Bit rate                                 : 35 b/s
Frame rate                               : 0.170 FPS
Count of elements                        : 599
Stream size                              : 15.4 KiB (0%)
Language                                 : Italian
Default                                  : No
Forced                                   : No

Text #22
ID                                       : 24
Format                                   : UTF-8
Codec ID                                 : S_TEXT/UTF8
Codec ID/Info                            : UTF-8 Plain Text
Duration                                 : 59 min 27 s
Bit rate                                 : 29 b/s
Frame rate                               : 0.164 FPS
Count of elements                        : 586
Stream size                              : 13.1 KiB (0%)
Language                                 : Japanese
Default                                  : No
Forced                                   : No

Text #23
ID                                       : 25
Format                                   : UTF-8
Codec ID                                 : S_TEXT/UTF8
Codec ID/Info                            : UTF-8 Plain Text
Duration                                 : 59 min 27 s
Bit rate                                 : 39 b/s
Frame rate                               : 0.168 FPS
Count of elements                        : 601
Stream size                              : 17.1 KiB (0%)
Language                                 : Korean
Default                                  : No
Forced                                   : No

Text #24
ID                                       : 26
Format                                   : UTF-8
Codec ID                                 : S_TEXT/UTF8
Codec ID/Info                            : UTF-8 Plain Text
Duration                                 : 59 min 27 s
Bit rate                                 : 36 b/s
Frame rate                               : 0.166 FPS
Count of elements                        : 593
Stream size                              : 15.9 KiB (0%)
Language                                 : Lithuanian
Default                                  : No
Forced                                   : No

Text #25
ID                                       : 27
Format                                   : UTF-8
Codec ID                                 : S_TEXT/UTF8
Codec ID/Info                            : UTF-8 Plain Text
Duration                                 : 59 min 27 s
Bit rate                                 : 37 b/s
Frame rate                               : 0.167 FPS
Count of elements                        : 597
Stream size                              : 16.4 KiB (0%)
Language                                 : Latvian
Default                                  : No
Forced                                   : No

Text #26
ID                                       : 28
Format                                   : UTF-8
Codec ID                                 : S_TEXT/UTF8
Codec ID/Info                            : UTF-8 Plain Text
Duration                                 : 59 min 27 s
Bit rate                                 : 35 b/s
Frame rate                               : 0.168 FPS
Count of elements                        : 598
Stream size                              : 15.7 KiB (0%)
Language                                 : Malay
Default                                  : No
Forced                                   : No

Text #27
ID                                       : 29
Format                                   : UTF-8
Codec ID                                 : S_TEXT/UTF8
Codec ID/Info                            : UTF-8 Plain Text
Duration                                 : 59 min 27 s
Bit rate                                 : 34 b/s
Frame rate                               : 0.118 FPS
Count of elements                        : 422
Stream size                              : 15.1 KiB (0%)
Language                                 : Dutch
Default                                  : No
Forced                                   : No

Text #28
ID                                       : 30
Format                                   : UTF-8
Codec ID                                 : S_TEXT/UTF8
Codec ID/Info                            : UTF-8 Plain Text
Duration                                 : 59 min 27 s
Bit rate                                 : 34 b/s
Frame rate                               : 0.158 FPS
Count of elements                        : 564
Stream size                              : 14.9 KiB (0%)
Language                                 : Norwegian
Default                                  : No
Forced                                   : No

Text #29
ID                                       : 31
Format                                   : UTF-8
Codec ID                                 : S_TEXT/UTF8
Codec ID/Info                            : UTF-8 Plain Text
Duration                                 : 59 min 27 s
Bit rate                                 : 36 b/s
Frame rate                               : 0.168 FPS
Count of elements                        : 598
Stream size                              : 16.1 KiB (0%)
Language                                 : Polish
Default                                  : No
Forced                                   : No

Text #30
ID                                       : 32
Format                                   : UTF-8
Codec ID                                 : S_TEXT/UTF8
Codec ID/Info                            : UTF-8 Plain Text
Duration                                 : 59 min 27 s
Bit rate                                 : 36 b/s
Frame rate                               : 0.166 FPS
Count of elements                        : 591
Stream size                              : 15.9 KiB (0%)
Title                                    : Portuguese
Language                                 : Portuguese
Default                                  : No
Forced                                   : No

Text #31
ID                                       : 33
Format                                   : UTF-8
Codec ID                                 : S_TEXT/UTF8
Codec ID/Info                            : UTF-8 Plain Text
Duration                                 : 59 min 27 s
Bit rate                                 : 35 b/s
Frame rate                               : 0.152 FPS
Count of elements                        : 541
Stream size                              : 15.6 KiB (0%)
Title                                    : Portuguese (Brazil)
Language                                 : Portuguese (BR)
Default                                  : No
Forced                                   : No

Text #32
ID                                       : 34
Format                                   : UTF-8
Codec ID                                 : S_TEXT/UTF8
Codec ID/Info                            : UTF-8 Plain Text
Duration                                 : 59 min 27 s
Bit rate                                 : 57 b/s
Frame rate                               : 0.168 FPS
Count of elements                        : 600
Stream size                              : 24.9 KiB (0%)
Language                                 : Russian
Default                                  : No
Forced                                   : No

Text #33
ID                                       : 35
Format                                   : UTF-8
Codec ID                                 : S_TEXT/UTF8
Codec ID/Info                            : UTF-8 Plain Text
Duration                                 : 59 min 27 s
Bit rate                                 : 34 b/s
Frame rate                               : 0.168 FPS
Count of elements                        : 599
Stream size                              : 15.1 KiB (0%)
Language                                 : Slovak
Default                                  : No
Forced                                   : No

Text #34
ID                                       : 36
Format                                   : UTF-8
Codec ID                                 : S_TEXT/UTF8
Codec ID/Info                            : UTF-8 Plain Text
Duration                                 : 59 min 27 s
Bit rate                                 : 30 b/s
Frame rate                               : 0.141 FPS
Count of elements                        : 503
Stream size                              : 13.1 KiB (0%)
Language                                 : Slovenian
Default                                  : No
Forced                                   : No

Text #35
ID                                       : 37
Format                                   : UTF-8
Codec ID                                 : S_TEXT/UTF8
Codec ID/Info                            : UTF-8 Plain Text
Duration                                 : 59 min 27 s
Bit rate                                 : 37 b/s
Frame rate                               : 0.165 FPS
Count of elements                        : 588
Stream size                              : 16.2 KiB (0%)
Language                                 : Swedish
Default                                  : No
Forced                                   : No

Text #36
ID                                       : 38
Format                                   : UTF-8
Codec ID                                 : S_TEXT/UTF8
Codec ID/Info                            : UTF-8 Plain Text
Duration                                 : 59 min 27 s
Bit rate                                 : 128 b/s
Frame rate                               : 0.168 FPS
Count of elements                        : 600
Stream size                              : 56.1 KiB (0%)
Language                                 : Tamil
Default                                  : No
Forced                                   : No

Text #37
ID                                       : 39
Format                                   : UTF-8
Codec ID                                 : S_TEXT/UTF8
Codec ID/Info                            : UTF-8 Plain Text
Duration                                 : 59 min 27 s
Bit rate                                 : 113 b/s
Frame rate                               : 0.168 FPS
Count of elements                        : 600
Stream size                              : 49.3 KiB (0%)
Language                                 : Telugu
Default                                  : No
Forced                                   : No

Text #38
ID                                       : 40
Format                                   : UTF-8
Codec ID                                 : S_TEXT/UTF8
Codec ID/Info                            : UTF-8 Plain Text
Duration                                 : 59 min 27 s
Bit rate                                 : 88 b/s
Frame rate                               : 0.168 FPS
Count of elements                        : 601
Stream size                              : 38.5 KiB (0%)
Language                                 : Thai
Default                                  : No
Forced                                   : No

Text #39
ID                                       : 41
Format                                   : UTF-8
Codec ID                                 : S_TEXT/UTF8
Codec ID/Info                            : UTF-8 Plain Text
Duration                                 : 59 min 27 s
Bit rate                                 : 37 b/s
Frame rate                               : 0.162 FPS
Count of elements                        : 578
Stream size                              : 16.2 KiB (0%)
Language                                 : Turkish
Default                                  : No
Forced                                   : No

Text #40
ID                                       : 42
Format                                   : UTF-8
Codec ID                                 : S_TEXT/UTF8
Codec ID/Info                            : UTF-8 Plain Text
Duration                                 : 59 min 27 s
Bit rate                                 : 56 b/s
Frame rate                               : 0.168 FPS
Count of elements                        : 601
Stream size                              : 24.8 KiB (0%)
Language                                 : Ukrainian
Default                                  : No
Forced                                   : No

Text #41
ID                                       : 43
Format                                   : UTF-8
Codec ID                                 : S_TEXT/UTF8
Codec ID/Info                            : UTF-8 Plain Text
Duration                                 : 59 min 27 s
Bit rate                                 : 49 b/s
Frame rate                               : 0.168 FPS
Count of elements                        : 600
Stream size                              : 21.4 KiB (0%)
Language                                 : Vietnamese
Default                                  : No
Forced                                   : No

Text #42
ID                                       : 44
Format                                   : UTF-8
Codec ID                                 : S_TEXT/UTF8
Codec ID/Info                            : UTF-8 Plain Text
Duration                                 : 59 min 27 s
Bit rate                                 : 32 b/s
Frame rate                               : 0.168 FPS
Count of elements                        : 601
Stream size                              : 14.3 KiB (0%)
Title                                    : Cantonese (Traditional)
Language                                 : Cantonese (Hant)
Default                                  : No
Forced                                   : No

Menu
00:00:00.000                             : en:Chapter 1
00:06:44.166                             : en:Intro
00:07:37.416                             : en:Chapter 2



Download
File Container: MKV
Video/Audio Codec: H264 (HIGH) EAC3
Video Resolution: 1356x678

1 Response to "[RR/NF/CU] Dark Matter 2024 S01E04 The Corridor 720p ATVP WEB-DL DDP5 1 H 264-NTb (1.5GB)"
05/23/24
01:01:46
ReadyPlayerOne

Thank you!

Please Login to post a comment.
If you don't have any account, please Register.
  • Subscribe my Feeds
  • Facebook
Encoding Queue:  x264  x265

Latest Episodes

Popular Movies and TV Shows

  • The Boys
  • Evil
  • Bridgerton
  • Brats
  • Mower Minions
  • Girlfriend's Day
  • WWE NXT
  • Walker
  • Criminal Minds
  • Lamp Life
  • Fentasy
  • The Artifice Girl
  • The Acolyte
  • Dark Matter
  • Presumed Innocent
  • In the Line of Fire
  • The Braid
  • Cabrini
  • FBI: Most Wanted
  • The Big Door Prize
  • WWE Raw
  • The Primevals
  • Origin
  • Mysteries of the Terracotta Warriors
  • The Daily Show

Recent Comments

  • mentalityx:

    Rad bloke.

  • mentalityx:

    Thx bloke.

  • Diggety247:

    BrokenHanded, Try using a DL manager.

  • BrokenHanded: clicknupload does not seem to work for past few days. keep getting an error saying the site is sendi...
  • Bud: Helps if you actually add these to the "Late Night with Seth Meyers" page too...
  • rambaldi70:

    Hy! Right now, my download speed : 1 Mb/s
    this is ok?
    Tx answer

  • Cinque_Persson: At 183 MB this had to be something completely different. In fact it's just the main actors commentin...
  • meyat74:

    my bad, should be full season

Archives