Sign Up   |   Sign In  
Criminal MindsThe ChiBad DinosaursKim's VideoBirdemic 2: The ResurrectionCaptivating the KingThe Loud HousePower Book II: GhostI Saw the TV GlowSpecies IIUltraman: RisingWWE NXTThe BoysThe Bold and the BeautifulThe GrabHannah Einbinder: Everything Must GoExhumaWalkerEvilWWE RawBratsMower MinionsNotas sobre un veranoThe Daily ShowSurvivor

Announcements

05/29

2024

2

Comments

Dark Matter 2024 S01E05 Worldless 720p ATVP WEB-DL DDP5 1 H 264-NTb
[RR/NF/CU]
Size: 1.4GB mkv H264 (HIGH) / EAC3  HD  1356x678

Dark Matter
File Information
[img]http://lookpic.com/cdn/i2/t/0529202404095339-1.jpg[/img]
[img]http://lookpic.com/cdn/i2/t/0529202404095339-2.jpg[/img]
[img]http://lookpic.com/cdn/i2/t/0529202404095339-3.jpg[/img]

General
Unique ID                                : 334023456547003498757889127870678202267 (0xFB4A93E4BF5DF9F50C66043414A0779B)
Complete name                            : Dark Matter 2024 S01E05 Worldless 720p ATVP WEB-DL DDP5 1 H 264-NTb.mkv
Format                                   : Matroska
Format version                           : Version 4
File size                                : 1.41 GiB
Duration                                 : 55 min 36 s
Overall bit rate                         : 3 633 kb/s
Frame rate                               : 23.976 FPS
Writing application                      : mkvmerge v84.0 ('Sleeper') 64-bit
Writing library                          : libebml v1.4.5 + libmatroska v1.7.1

Video
ID                                       : 1
Format                                   : AVC
Format/Info                              : Advanced Video Codec
Format profile                           : High@L3.2
Format settings                          : CABAC / 5 Ref Frames
Format settings, CABAC                   : Yes
Format settings, Reference frames        : 5 frames
Codec ID                                 : V_MPEG4/ISO/AVC
Duration                                 : 55 min 36 s
Bit rate                                 : 2 858 kb/s
Width                                    : 1 356 pixels
Height                                   : 678 pixels
Display aspect ratio                     : 2.000
Frame rate mode                          : Constant
Frame rate                               : 23.976 (24000/1001) FPS
Color space                              : YUV
Chroma subsampling                       : 4:2:0
Bit depth                                : 8 bits
Scan type                                : Progressive
Bits/(Pixel*Frame)                       : 0.130
Stream size                              : 1.11 GiB (79%)
Default                                  : Yes
Forced                                   : No
Color range                              : Limited
Color primaries                          : BT.709
Transfer characteristics                 : BT.709
Matrix coefficients                      : BT.709

Audio
ID                                       : 2
Format                                   : E-AC-3 JOC
Format/Info                              : Enhanced AC-3 with Joint Object Coding
Commercial name                          : Dolby Digital Plus with Dolby Atmos
Codec ID                                 : A_EAC3
Duration                                 : 55 min 36 s
Bit rate mode                            : Constant
Bit rate                                 : 768 kb/s
Channel(s)                               : 6 channels
Channel layout                           : L R C LFE Ls Rs
Sampling rate                            : 48.0 kHz
Frame rate                               : 31.250 FPS (1536 SPF)
Compression mode                         : Lossy
Stream size                              : 305 MiB (21%)
Language                                 : English
Service kind                             : Complete Main
Default                                  : Yes
Forced                                   : No
Complexity index                         : 16
Number of dynamic objects                : 15
Bed channel count                        : 1 channel
Bed channel configuration                : LFE

Text #1
ID                                       : 3
Format                                   : UTF-8
Codec ID                                 : S_TEXT/UTF8
Codec ID/Info                            : UTF-8 Plain Text
Duration                                 : 53 min 45 s
Bit rate                                 : 44 b/s
Frame rate                               : 0.182 FPS
Count of elements                        : 588
Stream size                              : 17.7 KiB (0%)
Language                                 : English
Default                                  : No
Forced                                   : No

Text #2
ID                                       : 4
Format                                   : UTF-8
Codec ID                                 : S_TEXT/UTF8
Codec ID/Info                            : UTF-8 Plain Text
Duration                                 : 53 min 45 s
Bit rate                                 : 55 b/s
Frame rate                               : 0.211 FPS
Count of elements                        : 682
Stream size                              : 21.7 KiB (0%)
Title                                    : SDH
Language                                 : English
Default                                  : No
Forced                                   : No

Text #3
ID                                       : 5
Format                                   : UTF-8
Codec ID                                 : S_TEXT/UTF8
Codec ID/Info                            : UTF-8 Plain Text
Duration                                 : 54 min 46 s
Bit rate                                 : 63 b/s
Frame rate                               : 0.179 FPS
Count of elements                        : 589
Stream size                              : 25.3 KiB (0%)
Language                                 : Arabic
Default                                  : No
Forced                                   : No

Text #4
ID                                       : 6
Format                                   : UTF-8
Codec ID                                 : S_TEXT/UTF8
Codec ID/Info                            : UTF-8 Plain Text
Duration                                 : 54 min 46 s
Bit rate                                 : 67 b/s
Frame rate                               : 0.147 FPS
Count of elements                        : 483
Stream size                              : 27.1 KiB (0%)
Language                                 : Bulgarian
Default                                  : No
Forced                                   : No

Text #5
ID                                       : 7
Format                                   : UTF-8
Codec ID                                 : S_TEXT/UTF8
Codec ID/Info                            : UTF-8 Plain Text
Duration                                 : 54 min 46 s
Bit rate                                 : 41 b/s
Frame rate                               : 0.181 FPS
Count of elements                        : 594
Stream size                              : 16.8 KiB (0%)
Title                                    : Chinese (Simplified)
Language                                 : Mandarin (Hans)
Default                                  : No
Forced                                   : No

Text #6
ID                                       : 8
Format                                   : UTF-8
Codec ID                                 : S_TEXT/UTF8
Codec ID/Info                            : UTF-8 Plain Text
Duration                                 : 54 min 46 s
Bit rate                                 : 39 b/s
Frame rate                               : 0.181 FPS
Count of elements                        : 595
Stream size                              : 15.6 KiB (0%)
Title                                    : Chinese (Traditional)
Language                                 : Mandarin (Hant)
Default                                  : No
Forced                                   : No

Text #7
ID                                       : 9
Format                                   : UTF-8
Codec ID                                 : S_TEXT/UTF8
Codec ID/Info                            : UTF-8 Plain Text
Duration                                 : 54 min 46 s
Bit rate                                 : 41 b/s
Frame rate                               : 0.167 FPS
Count of elements                        : 550
Stream size                              : 16.6 KiB (0%)
Language                                 : Czech
Default                                  : No
Forced                                   : No

Text #8
ID                                       : 10
Format                                   : UTF-8
Codec ID                                 : S_TEXT/UTF8
Codec ID/Info                            : UTF-8 Plain Text
Duration                                 : 54 min 46 s
Bit rate                                 : 41 b/s
Frame rate                               : 0.150 FPS
Count of elements                        : 492
Stream size                              : 16.6 KiB (0%)
Language                                 : Danish
Default                                  : No
Forced                                   : No

Text #9
ID                                       : 11
Format                                   : UTF-8
Codec ID                                 : S_TEXT/UTF8
Codec ID/Info                            : UTF-8 Plain Text
Duration                                 : 54 min 36 s
Bit rate                                 : 44 b/s
Frame rate                               : 0.181 FPS
Count of elements                        : 594
Stream size                              : 17.7 KiB (0%)
Language                                 : German
Default                                  : No
Forced                                   : No

Text #10
ID                                       : 12
Format                                   : UTF-8
Codec ID                                 : S_TEXT/UTF8
Codec ID/Info                            : UTF-8 Plain Text
Duration                                 : 54 min 46 s
Bit rate                                 : 73 b/s
Frame rate                               : 0.172 FPS
Count of elements                        : 564
Stream size                              : 29.6 KiB (0%)
Language                                 : Greek
Default                                  : No
Forced                                   : No

Text #11
ID                                       : 13
Format                                   : UTF-8
Codec ID                                 : S_TEXT/UTF8
Codec ID/Info                            : UTF-8 Plain Text
Duration                                 : 54 min 46 s
Bit rate                                 : 43 b/s
Frame rate                               : 0.182 FPS
Count of elements                        : 599
Stream size                              : 17.6 KiB (0%)
Title                                    : Spanish (Latin America)
Language                                 : Spanish (Latin America)
Default                                  : No
Forced                                   : No

Text #12
ID                                       : 14
Format                                   : UTF-8
Codec ID                                 : S_TEXT/UTF8
Codec ID/Info                            : UTF-8 Plain Text
Duration                                 : 54 min 46 s
Bit rate                                 : 42 b/s
Frame rate                               : 0.181 FPS
Count of elements                        : 594
Stream size                              : 16.9 KiB (0%)
Title                                    : Spanish (Spain)
Language                                 : Spanish (ES)
Default                                  : No
Forced                                   : No

Text #13
ID                                       : 15
Format                                   : UTF-8
Codec ID                                 : S_TEXT/UTF8
Codec ID/Info                            : UTF-8 Plain Text
Duration                                 : 54 min 46 s
Bit rate                                 : 42 b/s
Frame rate                               : 0.180 FPS
Count of elements                        : 591
Stream size                              : 17.1 KiB (0%)
Language                                 : Estonian
Default                                  : No
Forced                                   : No

Text #14
ID                                       : 16
Format                                   : UTF-8
Codec ID                                 : S_TEXT/UTF8
Codec ID/Info                            : UTF-8 Plain Text
Duration                                 : 54 min 46 s
Bit rate                                 : 46 b/s
Frame rate                               : 0.181 FPS
Count of elements                        : 594
Stream size                              : 18.5 KiB (0%)
Language                                 : Finnish
Default                                  : No
Forced                                   : No

Text #15
ID                                       : 17
Format                                   : UTF-8
Codec ID                                 : S_TEXT/UTF8
Codec ID/Info                            : UTF-8 Plain Text
Duration                                 : 54 min 38 s
Bit rate                                 : 42 b/s
Frame rate                               : 0.192 FPS
Count of elements                        : 629
Stream size                              : 17.1 KiB (0%)
Title                                    : French (Canada)
Language                                 : French (CA)
Default                                  : No
Forced                                   : No

Text #16
ID                                       : 18
Format                                   : UTF-8
Codec ID                                 : S_TEXT/UTF8
Codec ID/Info                            : UTF-8 Plain Text
Duration                                 : 54 min 38 s
Bit rate                                 : 42 b/s
Frame rate                               : 0.192 FPS
Count of elements                        : 628
Stream size                              : 17.1 KiB (0%)
Title                                    : French (France)
Language                                 : French (FR)
Default                                  : No
Forced                                   : No

Text #17
ID                                       : 19
Format                                   : UTF-8
Codec ID                                 : S_TEXT/UTF8
Codec ID/Info                            : UTF-8 Plain Text
Duration                                 : 54 min 46 s
Bit rate                                 : 59 b/s
Frame rate                               : 0.181 FPS
Count of elements                        : 594
Stream size                              : 24.0 KiB (0%)
Language                                 : Hebrew
Default                                  : No
Forced                                   : No

Text #18
ID                                       : 20
Format                                   : UTF-8
Codec ID                                 : S_TEXT/UTF8
Codec ID/Info                            : UTF-8 Plain Text
Duration                                 : 54 min 46 s
Bit rate                                 : 121 b/s
Frame rate                               : 0.181 FPS
Count of elements                        : 595
Stream size                              : 48.9 KiB (0%)
Language                                 : Hindi
Default                                  : No
Forced                                   : No

Text #19
ID                                       : 21
Format                                   : UTF-8
Codec ID                                 : S_TEXT/UTF8
Codec ID/Info                            : UTF-8 Plain Text
Duration                                 : 54 min 46 s
Bit rate                                 : 42 b/s
Frame rate                               : 0.180 FPS
Count of elements                        : 593
Stream size                              : 17.0 KiB (0%)
Language                                 : Hungarian
Default                                  : No
Forced                                   : No

Text #20
ID                                       : 22
Format                                   : UTF-8
Codec ID                                 : S_TEXT/UTF8
Codec ID/Info                            : UTF-8 Plain Text
Duration                                 : 54 min 46 s
Bit rate                                 : 41 b/s
Frame rate                               : 0.180 FPS
Count of elements                        : 592
Stream size                              : 16.8 KiB (0%)
Language                                 : Indonesian
Default                                  : No
Forced                                   : No

Text #21
ID                                       : 23
Format                                   : UTF-8
Codec ID                                 : S_TEXT/UTF8
Codec ID/Info                            : UTF-8 Plain Text
Duration                                 : 54 min 1 s
Bit rate                                 : 43 b/s
Frame rate                               : 0.182 FPS
Count of elements                        : 590
Stream size                              : 17.1 KiB (0%)
Language                                 : Italian
Default                                  : No
Forced                                   : No

Text #22
ID                                       : 24
Format                                   : UTF-8
Codec ID                                 : S_TEXT/UTF8
Codec ID/Info                            : UTF-8 Plain Text
Duration                                 : 54 min 46 s
Bit rate                                 : 37 b/s
Frame rate                               : 0.171 FPS
Count of elements                        : 561
Stream size                              : 15.1 KiB (0%)
Language                                 : Japanese
Default                                  : No
Forced                                   : No

Text #23
ID                                       : 25
Format                                   : UTF-8
Codec ID                                 : S_TEXT/UTF8
Codec ID/Info                            : UTF-8 Plain Text
Duration                                 : 54 min 46 s
Bit rate                                 : 46 b/s
Frame rate                               : 0.181 FPS
Count of elements                        : 594
Stream size                              : 18.7 KiB (0%)
Language                                 : Korean
Default                                  : No
Forced                                   : No

Text #24
ID                                       : 26
Format                                   : UTF-8
Codec ID                                 : S_TEXT/UTF8
Codec ID/Info                            : UTF-8 Plain Text
Duration                                 : 54 min 46 s
Bit rate                                 : 44 b/s
Frame rate                               : 0.179 FPS
Count of elements                        : 588
Stream size                              : 18.0 KiB (0%)
Language                                 : Lithuanian
Default                                  : No
Forced                                   : No

Text #25
ID                                       : 27
Format                                   : UTF-8
Codec ID                                 : S_TEXT/UTF8
Codec ID/Info                            : UTF-8 Plain Text
Duration                                 : 54 min 46 s
Bit rate                                 : 45 b/s
Frame rate                               : 0.179 FPS
Count of elements                        : 589
Stream size                              : 18.3 KiB (0%)
Language                                 : Latvian
Default                                  : No
Forced                                   : No

Text #26
ID                                       : 28
Format                                   : UTF-8
Codec ID                                 : S_TEXT/UTF8
Codec ID/Info                            : UTF-8 Plain Text
Duration                                 : 54 min 46 s
Bit rate                                 : 43 b/s
Frame rate                               : 0.180 FPS
Count of elements                        : 593
Stream size                              : 17.4 KiB (0%)
Language                                 : Malay
Default                                  : No
Forced                                   : No

Text #27
ID                                       : 29
Format                                   : UTF-8
Codec ID                                 : S_TEXT/UTF8
Codec ID/Info                            : UTF-8 Plain Text
Duration                                 : 54 min 40 s
Bit rate                                 : 42 b/s
Frame rate                               : 0.133 FPS
Count of elements                        : 437
Stream size                              : 16.8 KiB (0%)
Language                                 : Dutch
Default                                  : No
Forced                                   : No

Text #28
ID                                       : 30
Format                                   : UTF-8
Codec ID                                 : S_TEXT/UTF8
Codec ID/Info                            : UTF-8 Plain Text
Duration                                 : 54 min 46 s
Bit rate                                 : 40 b/s
Frame rate                               : 0.165 FPS
Count of elements                        : 542
Stream size                              : 16.3 KiB (0%)
Language                                 : Norwegian
Default                                  : No
Forced                                   : No

Text #29
ID                                       : 31
Format                                   : UTF-8
Codec ID                                 : S_TEXT/UTF8
Codec ID/Info                            : UTF-8 Plain Text
Duration                                 : 54 min 46 s
Bit rate                                 : 43 b/s
Frame rate                               : 0.180 FPS
Count of elements                        : 590
Stream size                              : 17.5 KiB (0%)
Language                                 : Polish
Default                                  : No
Forced                                   : No

Text #30
ID                                       : 32
Format                                   : UTF-8
Codec ID                                 : S_TEXT/UTF8
Codec ID/Info                            : UTF-8 Plain Text
Duration                                 : 54 min 46 s
Bit rate                                 : 43 b/s
Frame rate                               : 0.179 FPS
Count of elements                        : 587
Stream size                              : 17.6 KiB (0%)
Title                                    : Portuguese
Language                                 : Portuguese
Default                                  : No
Forced                                   : No

Text #31
ID                                       : 33
Format                                   : UTF-8
Codec ID                                 : S_TEXT/UTF8
Codec ID/Info                            : UTF-8 Plain Text
Duration                                 : 54 min 46 s
Bit rate                                 : 42 b/s
Frame rate                               : 0.166 FPS
Count of elements                        : 544
Stream size                              : 17.1 KiB (0%)
Title                                    : Portuguese (Brazil)
Language                                 : Portuguese (BR)
Default                                  : No
Forced                                   : No

Text #32
ID                                       : 34
Format                                   : UTF-8
Codec ID                                 : S_TEXT/UTF8
Codec ID/Info                            : UTF-8 Plain Text
Duration                                 : 54 min 46 s
Bit rate                                 : 68 b/s
Frame rate                               : 0.180 FPS
Count of elements                        : 591
Stream size                              : 27.3 KiB (0%)
Language                                 : Russian
Default                                  : No
Forced                                   : No

Text #33
ID                                       : 35
Format                                   : UTF-8
Codec ID                                 : S_TEXT/UTF8
Codec ID/Info                            : UTF-8 Plain Text
Duration                                 : 54 min 46 s
Bit rate                                 : 41 b/s
Frame rate                               : 0.180 FPS
Count of elements                        : 593
Stream size                              : 16.7 KiB (0%)
Language                                 : Slovak
Default                                  : No
Forced                                   : No

Text #34
ID                                       : 36
Format                                   : UTF-8
Codec ID                                 : S_TEXT/UTF8
Codec ID/Info                            : UTF-8 Plain Text
Duration                                 : 54 min 46 s
Bit rate                                 : 36 b/s
Frame rate                               : 0.155 FPS
Count of elements                        : 510
Stream size                              : 14.8 KiB (0%)
Language                                 : Slovenian
Default                                  : No
Forced                                   : No

Text #35
ID                                       : 37
Format                                   : UTF-8
Codec ID                                 : S_TEXT/UTF8
Codec ID/Info                            : UTF-8 Plain Text
Duration                                 : 54 min 46 s
Bit rate                                 : 45 b/s
Frame rate                               : 0.177 FPS
Count of elements                        : 583
Stream size                              : 18.2 KiB (0%)
Language                                 : Swedish
Default                                  : No
Forced                                   : No

Text #36
ID                                       : 38
Format                                   : UTF-8
Codec ID                                 : S_TEXT/UTF8
Codec ID/Info                            : UTF-8 Plain Text
Duration                                 : 54 min 46 s
Bit rate                                 : 149 b/s
Frame rate                               : 0.181 FPS
Count of elements                        : 594
Stream size                              : 60.0 KiB (0%)
Language                                 : Tamil
Default                                  : No
Forced                                   : No

Text #37
ID                                       : 39
Format                                   : UTF-8
Codec ID                                 : S_TEXT/UTF8
Codec ID/Info                            : UTF-8 Plain Text
Duration                                 : 54 min 46 s
Bit rate                                 : 137 b/s
Frame rate                               : 0.181 FPS
Count of elements                        : 594
Stream size                              : 55.3 KiB (0%)
Language                                 : Telugu
Default                                  : No
Forced                                   : No

Text #38
ID                                       : 40
Format                                   : UTF-8
Codec ID                                 : S_TEXT/UTF8
Codec ID/Info                            : UTF-8 Plain Text
Duration                                 : 54 min 46 s
Bit rate                                 : 105 b/s
Frame rate                               : 0.181 FPS
Count of elements                        : 594
Stream size                              : 42.2 KiB (0%)
Language                                 : Thai
Default                                  : No
Forced                                   : No

Text #39
ID                                       : 41
Format                                   : UTF-8
Codec ID                                 : S_TEXT/UTF8
Codec ID/Info                            : UTF-8 Plain Text
Duration                                 : 54 min 46 s
Bit rate                                 : 45 b/s
Frame rate                               : 0.171 FPS
Count of elements                        : 562
Stream size                              : 18.1 KiB (0%)
Language                                 : Turkish
Default                                  : No
Forced                                   : No

Text #40
ID                                       : 42
Format                                   : UTF-8
Codec ID                                 : S_TEXT/UTF8
Codec ID/Info                            : UTF-8 Plain Text
Duration                                 : 54 min 46 s
Bit rate                                 : 66 b/s
Frame rate                               : 0.181 FPS
Count of elements                        : 594
Stream size                              : 26.6 KiB (0%)
Language                                 : Ukrainian
Default                                  : No
Forced                                   : No

Text #41
ID                                       : 43
Format                                   : UTF-8
Codec ID                                 : S_TEXT/UTF8
Codec ID/Info                            : UTF-8 Plain Text
Duration                                 : 54 min 46 s
Bit rate                                 : 57 b/s
Frame rate                               : 0.181 FPS
Count of elements                        : 595
Stream size                              : 23.1 KiB (0%)
Language                                 : Vietnamese
Default                                  : No
Forced                                   : No

Text #42
ID                                       : 44
Format                                   : UTF-8
Codec ID                                 : S_TEXT/UTF8
Codec ID/Info                            : UTF-8 Plain Text
Duration                                 : 54 min 46 s
Bit rate                                 : 38 b/s
Frame rate                               : 0.181 FPS
Count of elements                        : 595
Stream size                              : 15.6 KiB (0%)
Title                                    : Cantonese (Traditional)
Language                                 : Cantonese (Hant)
Default                                  : No
Forced                                   : No

Menu
00:00:00.000                             : en:Chapter 1
00:03:12.082                             : en:Intro
00:04:04.791                             : en:Chapter 2



Download
File Container: MKV
Video/Audio Codec: H264 (HIGH) EAC3
Video Resolution: 1356x678

2 Responses to "[RR/NF/CU] Dark Matter 2024 S01E05 Worldless 720p ATVP WEB-DL DDP5 1 H 264-NTb (1.4GB)"
05/29/24
04:27:03
ReadyPlayerOne

Thank you!

05/29/24
04:40:09
neexyy

======================

Dark Matter 2024 S01E05 Worldless 720p ATVP WEB-DL DDP5 1 H 264-NTb
1.41 GB
==================================================
https://rapidgator.net/file/0ed4ab651bc11c72c6da35136d420b84

https://nitroflare.com/view/DD90932928E7EB2/Dark_Matter_2024_S01E05_Worldless_720p_ATVP_WEB

https://clicknupload.space/eq20v1nta5jx

Dark Matter 2024 S01E05 Worldless 720p ATVP WEB-DL DDP5 1 Atmos H 264-FLUX
1.41 GB
=======================================================
https://nitroflare.com/view/64C97AB3C3A7954/Dark_Matter_2024_S01E05_Worldless_720p_ATVP_WEB-DL_DDP5_1_Atmos_H_264-FLUX.mkv

https://rapidgator.net/file/c2fb5c9d1fb8570d684587d83508c10c

https://clicknupload.space/w07jdszpaygo

============================

Please Login to post a comment.
If you don't have any account, please Register.
  • Subscribe my Feeds
  • Facebook
Encoding Queue:  x264  x265

Latest Episodes

Popular Movies and TV Shows

  • Criminal Minds
  • The Chi
  • Bad Dinosaurs
  • Kim's Video
  • Birdemic 2: The Resurrection
  • Captivating the King
  • The Loud House
  • Power Book II: Ghost
  • I Saw the TV Glow
  • Species II
  • Ultraman: Rising
  • WWE NXT
  • The Boys
  • The Bold and the Beautiful
  • The Grab
  • Hannah Einbinder: Everything Must Go
  • Exhuma
  • Walker
  • Evil
  • WWE Raw
  • Brats
  • Mower Minions
  • Notas sobre un verano
  • The Daily Show
  • Survivor

Recent Comments

  • waanaabe: Does anyone have season 1 and 2 of "The Mire"? here is just season 3 of this polish series...
  • Rmed:

    Links are dead. Re-upload please?

  • mentalityx:

    Rad bloke.

  • mentalityx:

    Thx bloke.

  • Diggety247:

    BrokenHanded, Try using a DL manager.

  • BrokenHanded: clicknupload does not seem to work for past few days. keep getting an error saying the site is sendi...
  • Bud: Helps if you actually add these to the "Late Night with Seth Meyers" page too...
  • rambaldi70:

    Hy! Right now, my download speed : 1 Mb/s
    this is ok?
    Tx answer

  • Cinque_Persson: At 183 MB this had to be something completely different. In fact it's just the main actors commentin...

Archives