Sign Up   |   Sign In  
The BoysEvilBridgertonBratsLamp LifeMower MinionsWWE NXTWalkerCriminal MindsThe Artifice GirlIn the Line of FireFentasyThe AcolyteDark MatterPresumed InnocentThe BraidOriginCabriniFBI: Most WantedThe Big Door PrizeWWE RawThe PrimevalsMysteries of the Terracotta WarriorsCamille 2000The Daily Show

Announcements

05/27

2024

No

Comments

Doctor Who 2023 S01E01 Space Babies 1080p DSNP WEB-DL DDP5 1 H 264-FLUX
[RR/NF]
Size: 2.3GB mkv H264 (HIGH) / EAC3  HD  1920x1080

Doctor Who
  • Doctor Who (2023-)
  • Genre: Adventure | Drama | Sci-Fi
  • Original Language: English
  • Original Network: Disney+
  • Storyline: The Time Lord known as the Doctor travels through space and time with his companions, having incredible adventures and facing dangerous enemies.
File Information
[img]http://lookpic.com/cdn/i2/t/0527202420403344-1.jpg[/img]
[img]http://lookpic.com/cdn/i2/t/0527202420403344-2.jpg[/img]
[img]http://lookpic.com/cdn/i2/t/0527202420403344-3.jpg[/img]

General
Unique ID                                : 323533498749624968469726597877739668143 (0xF366490B1652FEA7A8EAF45CBC6DC2AF)
Complete name                            : Doctor Who 2023 S01E01 Space Babies 1080p DSNP WEB-DL DDP5 1 H 264-FLUX.mkv
Format                                   : Matroska
Format version                           : Version 4
File size                                : 2.30 GiB
Duration                                 : 46 min 31 s
Overall bit rate mode                    : Variable
Overall bit rate                         : 7 086 kb/s
Frame rate                               : 25.000 FPS
Writing application                      : mkvmerge v83.0 ('Circle Of Friends') 64-bit
Writing library                          : libebml v1.4.5 + libmatroska v1.7.1

Video
ID                                       : 1
Format                                   : AVC
Format/Info                              : Advanced Video Codec
Format profile                           : High@L4
Format settings                          : CABAC / 4 Ref Frames
Format settings, CABAC                   : Yes
Format settings, Reference frames        : 4 frames
Codec ID                                 : V_MPEG4/ISO/AVC
Duration                                 : 46 min 31 s
Bit rate mode                            : Variable
Bit rate                                 : 6 824 kb/s
Maximum bit rate                         : 12.7 Mb/s
Width                                    : 1 920 pixels
Height                                   : 1 080 pixels
Display aspect ratio                     : 16:9
Frame rate mode                          : Constant
Frame rate                               : 25.000 FPS
Color space                              : YUV
Chroma subsampling                       : 4:2:0
Bit depth                                : 8 bits
Scan type                                : Progressive
Bits/(Pixel*Frame)                       : 0.132
Time code of first frame                 : 00:00:00:0000000000
Stream size                              : 2.22 GiB (96%)
Language                                 : English
Default                                  : Yes
Forced                                   : No
Color range                              : Limited
Color primaries                          : BT.709
Transfer characteristics                 : BT.709
Matrix coefficients                      : BT.709

Audio
ID                                       : 2
Format                                   : E-AC-3
Format/Info                              : Enhanced AC-3
Commercial name                          : Dolby Digital Plus
Codec ID                                 : A_EAC3
Duration                                 : 46 min 31 s
Bit rate mode                            : Constant
Bit rate                                 : 256 kb/s
Channel(s)                               : 6 channels
Channel layout                           : L R C LFE Ls Rs
Sampling rate                            : 48.0 kHz
Frame rate                               : 31.250 FPS (1536 SPF)
Compression mode                         : Lossy
Stream size                              : 85.2 MiB (4%)
Language                                 : English
Service kind                             : Complete Main
Default                                  : Yes
Forced                                   : No

Text #1
ID                                       : 3
Format                                   : UTF-8
Codec ID                                 : S_TEXT/UTF8
Codec ID/Info                            : UTF-8 Plain Text
Duration                                 : 44 min 16 s
Bit rate                                 : 74 b/s
Frame rate                               : 0.296 FPS
Count of elements                        : 787
Stream size                              : 24.1 KiB (0%)
Title                                    : British
Language                                 : English (GB)
Default                                  : No
Forced                                   : No

Text #2
ID                                       : 4
Format                                   : UTF-8
Codec ID                                 : S_TEXT/UTF8
Codec ID/Info                            : UTF-8 Plain Text
Duration                                 : 45 min 33 s
Bit rate                                 : 88 b/s
Frame rate                               : 0.348 FPS
Count of elements                        : 952
Stream size                              : 29.6 KiB (0%)
Title                                    : British | SDH
Language                                 : English (GB)
Default                                  : No
Forced                                   : No

Text #3
ID                                       : 5
Format                                   : UTF-8
Codec ID                                 : S_TEXT/UTF8
Codec ID/Info                            : UTF-8 Plain Text
Duration                                 : 45 min 53 s
Bit rate                                 : 68 b/s
Frame rate                               : 0.260 FPS
Count of elements                        : 717
Stream size                              : 23.1 KiB (0%)
Language                                 : Czech
Default                                  : No
Forced                                   : No

Text #4
ID                                       : 6
Format                                   : UTF-8
Codec ID                                 : S_TEXT/UTF8
Codec ID/Info                            : UTF-8 Plain Text
Duration                                 : 45 min 48 s
Bit rate                                 : 68 b/s
Frame rate                               : 0.249 FPS
Count of elements                        : 683
Stream size                              : 22.8 KiB (0%)
Language                                 : Danish
Default                                  : No
Forced                                   : No

Text #5
ID                                       : 7
Format                                   : UTF-8
Codec ID                                 : S_TEXT/UTF8
Codec ID/Info                            : UTF-8 Plain Text
Duration                                 : 45 min 48 s
Bit rate                                 : 68 b/s
Frame rate                               : 0.277 FPS
Count of elements                        : 762
Stream size                              : 22.8 KiB (0%)
Language                                 : German
Default                                  : No
Forced                                   : No

Text #6
ID                                       : 8
Format                                   : UTF-8
Codec ID                                 : S_TEXT/UTF8
Codec ID/Info                            : UTF-8 Plain Text
Duration                                 : 45 min 48 s
Bit rate                                 : 113 b/s
Frame rate                               : 0.270 FPS
Count of elements                        : 742
Stream size                              : 38.0 KiB (0%)
Language                                 : Greek
Default                                  : No
Forced                                   : No

Text #7
ID                                       : 9
Format                                   : UTF-8
Codec ID                                 : S_TEXT/UTF8
Codec ID/Info                            : UTF-8 Plain Text
Duration                                 : 45 min 48 s
Bit rate                                 : 64 b/s
Frame rate                               : 0.243 FPS
Count of elements                        : 669
Stream size                              : 21.5 KiB (0%)
Title                                    : Latin American
Language                                 : Spanish (Latin America)
Default                                  : No
Forced                                   : No

Text #8
ID                                       : 10
Format                                   : UTF-8
Codec ID                                 : S_TEXT/UTF8
Codec ID/Info                            : UTF-8 Plain Text
Duration                                 : 45 min 48 s
Bit rate                                 : 68 b/s
Frame rate                               : 0.268 FPS
Count of elements                        : 737
Stream size                              : 23.1 KiB (0%)
Language                                 : Spanish (ES)
Default                                  : No
Forced                                   : No

Text #9
ID                                       : 11
Format                                   : UTF-8
Codec ID                                 : S_TEXT/UTF8
Codec ID/Info                            : UTF-8 Plain Text
Duration                                 : 45 min 48 s
Bit rate                                 : 66 b/s
Frame rate                               : 0.251 FPS
Count of elements                        : 690
Stream size                              : 22.5 KiB (0%)
Language                                 : Finnish
Default                                  : No
Forced                                   : No

Text #10
ID                                       : 12
Format                                   : UTF-8
Codec ID                                 : S_TEXT/UTF8
Codec ID/Info                            : UTF-8 Plain Text
Duration                                 : 45 min 48 s
Bit rate                                 : 66 b/s
Frame rate                               : 0.276 FPS
Count of elements                        : 759
Stream size                              : 22.2 KiB (0%)
Language                                 : French (FR)
Default                                  : No
Forced                                   : No

Text #11
ID                                       : 13
Format                                   : UTF-8
Codec ID                                 : S_TEXT/UTF8
Codec ID/Info                            : UTF-8 Plain Text
Duration                                 : 45 min 53 s
Bit rate                                 : 66 b/s
Frame rate                               : 0.271 FPS
Count of elements                        : 746
Stream size                              : 22.4 KiB (0%)
Language                                 : Hungarian
Default                                  : No
Forced                                   : No

Text #12
ID                                       : 14
Format                                   : UTF-8
Codec ID                                 : S_TEXT/UTF8
Codec ID/Info                            : UTF-8 Plain Text
Duration                                 : 45 min 48 s
Bit rate                                 : 65 b/s
Frame rate                               : 0.280 FPS
Count of elements                        : 770
Stream size                              : 21.9 KiB (0%)
Language                                 : Italian
Default                                  : No
Forced                                   : No

Text #13
ID                                       : 15
Format                                   : UTF-8
Codec ID                                 : S_TEXT/UTF8
Codec ID/Info                            : UTF-8 Plain Text
Duration                                 : 45 min 53 s
Bit rate                                 : 61 b/s
Frame rate                               : 0.270 FPS
Count of elements                        : 743
Stream size                              : 20.7 KiB (0%)
Language                                 : Japanese
Default                                  : No
Forced                                   : No

Text #14
ID                                       : 16
Format                                   : UTF-8
Codec ID                                 : S_TEXT/UTF8
Codec ID/Info                            : UTF-8 Plain Text
Duration                                 : 45 min 53 s
Bit rate                                 : 79 b/s
Frame rate                               : 0.281 FPS
Count of elements                        : 773
Stream size                              : 26.8 KiB (0%)
Language                                 : Korean
Default                                  : No
Forced                                   : No

Text #15
ID                                       : 17
Format                                   : UTF-8
Codec ID                                 : S_TEXT/UTF8
Codec ID/Info                            : UTF-8 Plain Text
Duration                                 : 45 min 48 s
Bit rate                                 : 60 b/s
Frame rate                               : 0.205 FPS
Count of elements                        : 564
Stream size                              : 20.4 KiB (0%)
Language                                 : Dutch
Default                                  : No
Forced                                   : No

Text #16
ID                                       : 18
Format                                   : UTF-8
Codec ID                                 : S_TEXT/UTF8
Codec ID/Info                            : UTF-8 Plain Text
Duration                                 : 45 min 48 s
Bit rate                                 : 65 b/s
Frame rate                               : 0.201 FPS
Count of elements                        : 552
Stream size                              : 21.9 KiB (0%)
Language                                 : Norwegian
Default                                  : No
Forced                                   : No

Text #17
ID                                       : 19
Format                                   : UTF-8
Codec ID                                 : S_TEXT/UTF8
Codec ID/Info                            : UTF-8 Plain Text
Duration                                 : 45 min 53 s
Bit rate                                 : 63 b/s
Frame rate                               : 0.272 FPS
Count of elements                        : 750
Stream size                              : 21.4 KiB (0%)
Language                                 : Polish
Default                                  : No
Forced                                   : No

Text #18
ID                                       : 20
Format                                   : UTF-8
Codec ID                                 : S_TEXT/UTF8
Codec ID/Info                            : UTF-8 Plain Text
Duration                                 : 45 min 48 s
Bit rate                                 : 68 b/s
Frame rate                               : 0.269 FPS
Count of elements                        : 740
Stream size                              : 23.0 KiB (0%)
Title                                    : Brazilian
Language                                 : Portuguese (BR)
Default                                  : No
Forced                                   : No

Text #19
ID                                       : 21
Format                                   : UTF-8
Codec ID                                 : S_TEXT/UTF8
Codec ID/Info                            : UTF-8 Plain Text
Duration                                 : 45 min 48 s
Bit rate                                 : 68 b/s
Frame rate                               : 0.280 FPS
Count of elements                        : 769
Stream size                              : 23.1 KiB (0%)
Language                                 : Portuguese (PT)
Default                                  : No
Forced                                   : No

Text #20
ID                                       : 22
Format                                   : UTF-8
Codec ID                                 : S_TEXT/UTF8
Codec ID/Info                            : UTF-8 Plain Text
Duration                                 : 45 min 48 s
Bit rate                                 : 64 b/s
Frame rate                               : 0.219 FPS
Count of elements                        : 603
Stream size                              : 21.7 KiB (0%)
Language                                 : Romanian
Default                                  : No
Forced                                   : No

Text #21
ID                                       : 23
Format                                   : UTF-8
Codec ID                                 : S_TEXT/UTF8
Codec ID/Info                            : UTF-8 Plain Text
Duration                                 : 45 min 53 s
Bit rate                                 : 62 b/s
Frame rate                               : 0.266 FPS
Count of elements                        : 732
Stream size                              : 21.0 KiB (0%)
Language                                 : Slovak
Default                                  : No
Forced                                   : No

Text #22
ID                                       : 24
Format                                   : UTF-8
Codec ID                                 : S_TEXT/UTF8
Codec ID/Info                            : UTF-8 Plain Text
Duration                                 : 45 min 48 s
Bit rate                                 : 64 b/s
Frame rate                               : 0.269 FPS
Count of elements                        : 738
Stream size                              : 21.7 KiB (0%)
Language                                 : Swedish
Default                                  : No
Forced                                   : No

Text #23
ID                                       : 25
Format                                   : UTF-8
Codec ID                                 : S_TEXT/UTF8
Codec ID/Info                            : UTF-8 Plain Text
Duration                                 : 45 min 53 s
Bit rate                                 : 68 b/s
Frame rate                               : 0.280 FPS
Count of elements                        : 770
Stream size                              : 23.1 KiB (0%)
Language                                 : Turkish
Default                                  : No
Forced                                   : No

Text #24
ID                                       : 26
Format                                   : UTF-8
Codec ID                                 : S_TEXT/UTF8
Codec ID/Info                            : UTF-8 Plain Text
Duration                                 : 45 min 53 s
Bit rate                                 : 62 b/s
Frame rate                               : 0.280 FPS
Count of elements                        : 771
Stream size                              : 21.2 KiB (0%)
Title                                    : Traditional
Language                                 : Chinese (Traditional)
Default                                  : No
Forced                                   : No

Menu
00:00:09.000                             : en:Intro
00:00:42.080                             : en:Scene 1
00:06:09.840                             : en:Scene 2
00:15:17.120                             : en:Scene 3
00:22:33.280                             : en:Scene 4
00:31:30.720                             : en:Scene 5
00:41:27.760                             : en:Scene 6
00:45:40.400                             : en:Credits



Download
File Container: MKV
Video/Audio Codec: H264 (HIGH) EAC3
Video Resolution: 1920x1080
Please Login to post a comment.
If you don't have any account, please Register.
  • Subscribe my Feeds
  • Facebook
Encoding Queue:  x264  x265

Latest Episodes

Popular Movies and TV Shows

  • The Boys
  • Evil
  • Bridgerton
  • Brats
  • Lamp Life
  • Mower Minions
  • WWE NXT
  • Walker
  • Criminal Minds
  • The Artifice Girl
  • In the Line of Fire
  • Fentasy
  • The Acolyte
  • Dark Matter
  • Presumed Innocent
  • The Braid
  • Origin
  • Cabrini
  • FBI: Most Wanted
  • The Big Door Prize
  • WWE Raw
  • The Primevals
  • Mysteries of the Terracotta Warriors
  • Camille 2000
  • The Daily Show

Recent Comments

  • mentalityx:

    Rad bloke.

  • mentalityx:

    Thx bloke.

  • Diggety247:

    BrokenHanded, Try using a DL manager.

  • BrokenHanded: clicknupload does not seem to work for past few days. keep getting an error saying the site is sendi...
  • Bud: Helps if you actually add these to the "Late Night with Seth Meyers" page too...
  • rambaldi70:

    Hy! Right now, my download speed : 1 Mb/s
    this is ok?
    Tx answer

  • Cinque_Persson: At 183 MB this had to be something completely different. In fact it's just the main actors commentin...
  • meyat74:

    my bad, should be full season

Archives