Sign Up   |   Sign In  
The Bold and the BeautifulI Saw the TV GlowThe Big CigarC*A*U*G*H*TThe PrestigeNotas sobre un veranoYoung SheldonBridgertonGoodbye Uncle TomModern FamilyAssimilateLSD 2: Love, Sex Aur Dhokha 2The BoysWWE NXTWalkerBratsMower MinionsFentasyEvilCriminal MindsThe AcolyteIn the Line of FireThe Artifice GirlCabriniThe Daily Show

Announcements

05/18

2024

No

Comments

Doctor Who 2023 S01E03 Boom 720p DSNP WEB-DL DD 5 1 H 264-playWEB
[RR/NF/CU]
Size: 1GB mkv H264 (HIGH) / EAC3  HD  1280x720

Doctor Who
  • Doctor Who (2023-)
  • Genre: Adventure | Drama | Sci-Fi
  • Original Language: English
  • Original Network: Disney+
  • Storyline: The Time Lord known as the Doctor travels through space and time with his companions, having incredible adventures and facing dangerous enemies.
File Information
[img]http://lookpic.com/cdn/i2/t/0518202413554365-1.jpg[/img]
[img]http://lookpic.com/cdn/i2/t/0518202413554365-2.jpg[/img]
[img]http://lookpic.com/cdn/i2/t/0518202413554365-3.jpg[/img]

General
Unique ID                                : 50949625150118912143947784461797272756 (0x26548A76AA5E81A04EAA538649EBACB4)
Complete name                            : Doctor Who 2023 S01E03 Boom 720p DSNP WEB-DL DD 5 1 H 264-playWEB.mkv
Format                                   : Matroska
Format version                           : Version 4
File size                                : 1.03 GiB
Duration                                 : 44 min 51 s
Overall bit rate mode                    : Variable
Overall bit rate                         : 3 279 kb/s
Frame rate                               : 25.000 FPS
Writing application                      : mkvmerge v84.0 ('Sleeper') 64-bit
Writing library                          : libebml v1.4.5 + libmatroska v1.7.1

Video
ID                                       : 1
Format                                   : AVC
Format/Info                              : Advanced Video Codec
Format profile                           : High@L3.1
Format settings                          : CABAC / 4 Ref Frames
Format settings, CABAC                   : Yes
Format settings, Reference frames        : 4 frames
Codec ID                                 : V_MPEG4/ISO/AVC
Duration                                 : 44 min 51 s
Bit rate mode                            : Variable
Bit rate                                 : 3 018 kb/s
Maximum bit rate                         : 6 375 kb/s
Width                                    : 1 280 pixels
Height                                   : 720 pixels
Display aspect ratio                     : 16:9
Frame rate mode                          : Constant
Frame rate                               : 25.000 FPS
Color space                              : YUV
Chroma subsampling                       : 4:2:0
Bit depth                                : 8 bits
Scan type                                : Progressive
Bits/(Pixel*Frame)                       : 0.131
Time code of first frame                 : 00:00:00:0000000000
Stream size                              : 968 MiB (92%)
Default                                  : Yes
Forced                                   : No
Color range                              : Limited
Color primaries                          : BT.709
Transfer characteristics                 : BT.709
Matrix coefficients                      : BT.709

Audio
ID                                       : 2
Format                                   : E-AC-3
Format/Info                              : Enhanced AC-3
Commercial name                          : Dolby Digital Plus
Codec ID                                 : A_EAC3
Duration                                 : 44 min 51 s
Bit rate mode                            : Constant
Bit rate                                 : 256 kb/s
Channel(s)                               : 6 channels
Channel layout                           : L R C LFE Ls Rs
Sampling rate                            : 48.0 kHz
Frame rate                               : 31.250 FPS (1536 SPF)
Compression mode                         : Lossy
Stream size                              : 82.1 MiB (8%)
Language                                 : English
Service kind                             : Complete Main
Default                                  : Yes
Forced                                   : No

Text #1
ID                                       : 3
Format                                   : UTF-8
Codec ID                                 : S_TEXT/UTF8
Codec ID/Info                            : UTF-8 Plain Text
Duration                                 : 44 min 35 s
Bit rate                                 : 76 b/s
Frame rate                               : 0.267 FPS
Count of elements                        : 713
Stream size                              : 24.9 KiB (0%)
Language                                 : Czech
Default                                  : No
Forced                                   : No

Text #2
ID                                       : 4
Format                                   : UTF-8
Codec ID                                 : S_TEXT/UTF8
Codec ID/Info                            : UTF-8 Plain Text
Duration                                 : 44 min 35 s
Bit rate                                 : 79 b/s
Frame rate                               : 0.269 FPS
Count of elements                        : 720
Stream size                              : 25.9 KiB (0%)
Language                                 : Danish
Default                                  : No
Forced                                   : No

Text #3
ID                                       : 5
Format                                   : UTF-8
Codec ID                                 : S_TEXT/UTF8
Codec ID/Info                            : UTF-8 Plain Text
Duration                                 : 44 min 35 s
Bit rate                                 : 78 b/s
Frame rate                               : 0.290 FPS
Count of elements                        : 775
Stream size                              : 25.7 KiB (0%)
Language                                 : German
Default                                  : No
Forced                                   : No

Text #4
ID                                       : 6
Format                                   : UTF-8
Codec ID                                 : S_TEXT/UTF8
Codec ID/Info                            : UTF-8 Plain Text
Duration                                 : 44 min 35 s
Bit rate                                 : 129 b/s
Frame rate                               : 0.280 FPS
Count of elements                        : 748
Stream size                              : 42.1 KiB (0%)
Language                                 : Greek
Default                                  : No
Forced                                   : No

Text #5
ID                                       : 7
Format                                   : UTF-8
Codec ID                                 : S_TEXT/UTF8
Codec ID/Info                            : UTF-8 Plain Text
Duration                                 : 43 min 50 s
Bit rate                                 : 84 b/s
Frame rate                               : 0.306 FPS
Count of elements                        : 804
Stream size                              : 27.2 KiB (0%)
Language                                 : English
Default                                  : No
Forced                                   : No

Text #6
ID                                       : 8
Format                                   : UTF-8
Codec ID                                 : S_TEXT/UTF8
Codec ID/Info                            : UTF-8 Plain Text
Duration                                 : 43 min 52 s
Bit rate                                 : 94 b/s
Frame rate                               : 0.335 FPS
Count of elements                        : 883
Stream size                              : 30.5 KiB (0%)
Title                                    : British (SDH)
Language                                 : English
Default                                  : No
Forced                                   : No

Text #7
ID                                       : 9
Format                                   : UTF-8
Codec ID                                 : S_TEXT/UTF8
Codec ID/Info                            : UTF-8 Plain Text
Duration                                 : 44 min 35 s
Bit rate                                 : 74 b/s
Frame rate                               : 0.249 FPS
Count of elements                        : 667
Stream size                              : 24.4 KiB (0%)
Title                                    : Latin American
Language                                 : Spanish
Default                                  : No
Forced                                   : No

Text #8
ID                                       : 10
Format                                   : UTF-8
Codec ID                                 : S_TEXT/UTF8
Codec ID/Info                            : UTF-8 Plain Text
Duration                                 : 44 min 35 s
Bit rate                                 : 79 b/s
Frame rate                               : 0.285 FPS
Count of elements                        : 763
Stream size                              : 26.1 KiB (0%)
Title                                    : European
Language                                 : Spanish
Default                                  : No
Forced                                   : No

Text #9
ID                                       : 11
Format                                   : UTF-8
Codec ID                                 : S_TEXT/UTF8
Codec ID/Info                            : UTF-8 Plain Text
Duration                                 : 44 min 35 s
Bit rate                                 : 76 b/s
Frame rate                               : 0.250 FPS
Count of elements                        : 670
Stream size                              : 24.9 KiB (0%)
Language                                 : Finnish
Default                                  : No
Forced                                   : No

Text #10
ID                                       : 12
Format                                   : UTF-8
Codec ID                                 : S_TEXT/UTF8
Codec ID/Info                            : UTF-8 Plain Text
Duration                                 : 44 min 35 s
Bit rate                                 : 76 b/s
Frame rate                               : 0.299 FPS
Count of elements                        : 800
Stream size                              : 25.1 KiB (0%)
Title                                    : European
Language                                 : French
Default                                  : No
Forced                                   : No

Text #11
ID                                       : 13
Format                                   : UTF-8
Codec ID                                 : S_TEXT/UTF8
Codec ID/Info                            : UTF-8 Plain Text
Duration                                 : 44 min 35 s
Bit rate                                 : 77 b/s
Frame rate                               : 0.286 FPS
Count of elements                        : 765
Stream size                              : 25.2 KiB (0%)
Language                                 : Hungarian
Default                                  : No
Forced                                   : No

Text #12
ID                                       : 14
Format                                   : UTF-8
Codec ID                                 : S_TEXT/UTF8
Codec ID/Info                            : UTF-8 Plain Text
Duration                                 : 44 min 35 s
Bit rate                                 : 71 b/s
Frame rate                               : 0.290 FPS
Count of elements                        : 775
Stream size                              : 23.2 KiB (0%)
Language                                 : Italian
Default                                  : No
Forced                                   : No

Text #13
ID                                       : 15
Format                                   : UTF-8
Codec ID                                 : S_TEXT/UTF8
Codec ID/Info                            : UTF-8 Plain Text
Duration                                 : 44 min 35 s
Bit rate                                 : 65 b/s
Frame rate                               : 0.293 FPS
Count of elements                        : 785
Stream size                              : 21.5 KiB (0%)
Language                                 : Japanese
Default                                  : No
Forced                                   : No

Text #14
ID                                       : 16
Format                                   : UTF-8
Codec ID                                 : S_TEXT/UTF8
Codec ID/Info                            : UTF-8 Plain Text
Duration                                 : 44 min 35 s
Bit rate                                 : 87 b/s
Frame rate                               : 0.298 FPS
Count of elements                        : 798
Stream size                              : 28.6 KiB (0%)
Language                                 : Korean
Default                                  : No
Forced                                   : No

Text #15
ID                                       : 17
Format                                   : UTF-8
Codec ID                                 : S_TEXT/UTF8
Codec ID/Info                            : UTF-8 Plain Text
Duration                                 : 44 min 35 s
Bit rate                                 : 65 b/s
Frame rate                               : 0.202 FPS
Count of elements                        : 540
Stream size                              : 21.5 KiB (0%)
Language                                 : Dutch
Default                                  : No
Forced                                   : No

Text #16
ID                                       : 18
Format                                   : UTF-8
Codec ID                                 : S_TEXT/UTF8
Codec ID/Info                            : UTF-8 Plain Text
Duration                                 : 44 min 35 s
Bit rate                                 : 73 b/s
Frame rate                               : 0.206 FPS
Count of elements                        : 551
Stream size                              : 24.0 KiB (0%)
Language                                 : Norwegian
Default                                  : No
Forced                                   : No

Text #17
ID                                       : 19
Format                                   : UTF-8
Codec ID                                 : S_TEXT/UTF8
Codec ID/Info                            : UTF-8 Plain Text
Duration                                 : 44 min 35 s
Bit rate                                 : 68 b/s
Frame rate                               : 0.281 FPS
Count of elements                        : 753
Stream size                              : 22.3 KiB (0%)
Language                                 : Polish
Default                                  : No
Forced                                   : No

Text #18
ID                                       : 20
Format                                   : UTF-8
Codec ID                                 : S_TEXT/UTF8
Codec ID/Info                            : UTF-8 Plain Text
Duration                                 : 44 min 35 s
Bit rate                                 : 77 b/s
Frame rate                               : 0.277 FPS
Count of elements                        : 742
Stream size                              : 25.4 KiB (0%)
Title                                    : Brazilian
Language                                 : Portuguese
Default                                  : No
Forced                                   : No

Text #19
ID                                       : 21
Format                                   : UTF-8
Codec ID                                 : S_TEXT/UTF8
Codec ID/Info                            : UTF-8 Plain Text
Duration                                 : 44 min 35 s
Bit rate                                 : 81 b/s
Frame rate                               : 0.300 FPS
Count of elements                        : 802
Stream size                              : 26.6 KiB (0%)
Title                                    : European
Language                                 : Portuguese
Default                                  : No
Forced                                   : No

Text #20
ID                                       : 22
Format                                   : UTF-8
Codec ID                                 : S_TEXT/UTF8
Codec ID/Info                            : UTF-8 Plain Text
Duration                                 : 44 min 35 s
Bit rate                                 : 75 b/s
Frame rate                               : 0.230 FPS
Count of elements                        : 614
Stream size                              : 24.6 KiB (0%)
Language                                 : Romanian
Default                                  : No
Forced                                   : No

Text #21
ID                                       : 23
Format                                   : UTF-8
Codec ID                                 : S_TEXT/UTF8
Codec ID/Info                            : UTF-8 Plain Text
Duration                                 : 44 min 35 s
Bit rate                                 : 72 b/s
Frame rate                               : 0.284 FPS
Count of elements                        : 760
Stream size                              : 23.6 KiB (0%)
Language                                 : Slovak
Default                                  : No
Forced                                   : No

Text #22
ID                                       : 24
Format                                   : UTF-8
Codec ID                                 : S_TEXT/UTF8
Codec ID/Info                            : UTF-8 Plain Text
Duration                                 : 44 min 35 s
Bit rate                                 : 78 b/s
Frame rate                               : 0.270 FPS
Count of elements                        : 722
Stream size                              : 25.7 KiB (0%)
Language                                 : Swedish
Default                                  : No
Forced                                   : No

Text #23
ID                                       : 25
Format                                   : UTF-8
Codec ID                                 : S_TEXT/UTF8
Codec ID/Info                            : UTF-8 Plain Text
Duration                                 : 44 min 35 s
Bit rate                                 : 80 b/s
Frame rate                               : 0.294 FPS
Count of elements                        : 786
Stream size                              : 26.3 KiB (0%)
Language                                 : Turkish
Default                                  : No
Forced                                   : No

Text #24
ID                                       : 26
Format                                   : UTF-8
Codec ID                                 : S_TEXT/UTF8
Codec ID/Info                            : UTF-8 Plain Text
Duration                                 : 44 min 35 s
Bit rate                                 : 74 b/s
Frame rate                               : 0.301 FPS
Count of elements                        : 804
Stream size                              : 24.4 KiB (0%)
Title                                    : Traditional
Language                                 : Chinese
Default                                  : No
Forced                                   : No

Menu
00:05:54.480                             : en:Intro
00:06:20.600                             : en:Scene 1
00:44:05.440                             : en:Credits



Download
File Container: MKV
Video/Audio Codec: H264 (HIGH) EAC3
Video Resolution: 1280x720
Please Login to post a comment.
If you don't have any account, please Register.
  • Subscribe my Feeds
  • Facebook
Encoding Queue:  x264  x265

Latest Episodes

Popular Movies and TV Shows

  • The Bold and the Beautiful
  • I Saw the TV Glow
  • The Big Cigar
  • C*A*U*G*H*T
  • The Prestige
  • Notas sobre un verano
  • Young Sheldon
  • Bridgerton
  • Goodbye Uncle Tom
  • Modern Family
  • Assimilate
  • LSD 2: Love, Sex Aur Dhokha 2
  • The Boys
  • WWE NXT
  • Walker
  • Brats
  • Mower Minions
  • Fentasy
  • Evil
  • Criminal Minds
  • The Acolyte
  • In the Line of Fire
  • The Artifice Girl
  • Cabrini
  • The Daily Show

Recent Comments

Archives