Sign Up   |   Sign In  
Mayor of KingstownHotel CocaineMy Adventures with SupermanDaaaaaali!Look to the LightFramed by My HusbandInterview with the VampirePrincess PowerBilly the KidOctopussyYou Can Live ForeverA Ring of Endless LightLadies in BlackThe Bold and the BeautifulReal Time with Bill MaherKung Fu HustleLicence to KillThere's Something About MaryWWE NXTThe Loud HouseWalkerVice News Presents: Mass Shooting AmericaInside Out 2My Sexual Abuse: The SitcomThe Daily Show

Announcements

05/24

2024

1

Comments

Elsbeth S01E10 A Fitting Finale 720p AMZN WEB-DL DDP5 1 H 264-FLUX
[RR/NF/CU]
Size: 1.3GB mkv H264 (HIGH) / EAC3  HD  1280x720

Elsbeth
File Information
[img]http://lookpic.com/cdn/i2/t/0524202411294392-1.jpg[/img]
[img]http://lookpic.com/cdn/i2/t/0524202411294392-2.jpg[/img]
[img]http://lookpic.com/cdn/i2/t/0524202411294392-3.jpg[/img]

General
Unique ID                                : 7135685529958991484235757559594237744 (0x55E48758B694126217B8780C52A3F30)
Complete name                            : Elsbeth S01E10 A Fitting Finale 720p AMZN WEB-DL DDP5 1 H 264-FLUX.mkv
Format                                   : Matroska
Format version                           : Version 4
File size                                : 1.25 GiB
Duration                                 : 43 min 8 s
Overall bit rate                         : 4 153 kb/s
Frame rate                               : 23.976 FPS
Writing application                      : mkvmerge v83.0 ('Circle Of Friends') 64-bit
Writing library                          : libebml v1.4.5 + libmatroska v1.7.1

Video
ID                                       : 1
Format                                   : AVC
Format/Info                              : Advanced Video Codec
Format profile                           : High@L3.1
Format settings                          : CABAC / 4 Ref Frames
Format settings, CABAC                   : Yes
Format settings, Reference frames        : 4 frames
Codec ID                                 : V_MPEG4/ISO/AVC
Duration                                 : 43 min 8 s
Bit rate mode                            : Constant
Bit rate                                 : 3 510 kb/s
Nominal bit rate                         : 6 000 kb/s
Width                                    : 1 280 pixels
Height                                   : 720 pixels
Display aspect ratio                     : 16:9
Frame rate mode                          : Constant
Frame rate                               : 23.976 (24000/1001) FPS
Color space                              : YUV
Chroma subsampling                       : 4:2:0
Bit depth                                : 8 bits
Scan type                                : Progressive
Bits/(Pixel*Frame)                       : 0.159
Stream size                              : 1.06 GiB (85%)
Language                                 : English (US)
Default                                  : Yes
Forced                                   : No
Color range                              : Limited
Color primaries                          : BT.709
Transfer characteristics                 : BT.709
Matrix coefficients                      : BT.709

Audio
ID                                       : 2
Format                                   : E-AC-3
Format/Info                              : Enhanced AC-3
Commercial name                          : Dolby Digital Plus
Codec ID                                 : A_EAC3
Duration                                 : 43 min 8 s
Bit rate mode                            : Constant
Bit rate                                 : 640 kb/s
Channel(s)                               : 6 channels
Channel layout                           : L R C LFE Ls Rs
Sampling rate                            : 48.0 kHz
Frame rate                               : 31.250 FPS (1536 SPF)
Compression mode                         : Lossy
Stream size                              : 197 MiB (15%)
Language                                 : English
Service kind                             : Complete Main
Default                                  : Yes
Forced                                   : No

Text #1
ID                                       : 3
Format                                   : UTF-8
Codec ID                                 : S_TEXT/UTF8
Codec ID/Info                            : UTF-8 Plain Text
Duration                                 : 42 min 18 s
Bit rate                                 : 88 b/s
Frame rate                               : 0.372 FPS
Count of elements                        : 943
Stream size                              : 27.4 KiB (0%)
Language                                 : English (US)
Default                                  : No
Forced                                   : No

Text #2
ID                                       : 4
Format                                   : UTF-8
Codec ID                                 : S_TEXT/UTF8
Codec ID/Info                            : UTF-8 Plain Text
Duration                                 : 42 min 30 s
Bit rate                                 : 91 b/s
Frame rate                               : 0.383 FPS
Count of elements                        : 978
Stream size                              : 28.5 KiB (0%)
Title                                    : SDH
Language                                 : English (US)
Default                                  : No
Forced                                   : No

Menu
00:00:00.000                             : en:Scene 1
00:43:03.000                             : en:Outro



Download
File Container: MKV
Video/Audio Codec: H264 (HIGH) EAC3
Video Resolution: 1280x720

1 Response to "[RR/NF/CU] Elsbeth S01E10 A Fitting Finale 720p AMZN WEB-DL DDP5 1 H 264-FLUX (1.3GB)"
05/24/24
14:23:29
ReadyPlayerOne

Thank You

Please Login to post a comment.
If you don't have any account, please Register.
  • Subscribe my Feeds
  • Facebook
Encoding Queue:  x264  x265

Latest Episodes

Popular Movies and TV Shows

  • Mayor of Kingstown
  • Hotel Cocaine
  • My Adventures with Superman
  • Daaaaaali!
  • Look to the Light
  • Framed by My Husband
  • Interview with the Vampire
  • Princess Power
  • Billy the Kid
  • Octopussy
  • You Can Live Forever
  • A Ring of Endless Light
  • Ladies in Black
  • The Bold and the Beautiful
  • Real Time with Bill Maher
  • Kung Fu Hustle
  • Licence to Kill
  • There's Something About Mary
  • WWE NXT
  • The Loud House
  • Walker
  • Vice News Presents: Mass Shooting America
  • Inside Out 2
  • My Sexual Abuse: The Sitcom
  • The Daily Show

Recent Comments

Archives