Sign Up   |   Sign In  
The Fall GuyBoy Kills WorldSTAX: Soulsville, U.S.A.Expend4blesFrom Dreams to Tragedy: The Fire that Shook Brazilian FootballLolla: The Story of LollapaloozaThe VeilYoung SheldonWWE Raw8 Found DeadSeize Them!ExtractionPointlessThe SimpsonsStress PositionsClub ZeroThe Name of the RoseAll AmericanS.W.A.T.Blue BloodsTrackerTMZ Presents: The Downfall of DiddyDevil in the FleshTales of Ordinary MadnessGhost Adventures

Announcements

04/17

2024

1

Comments

FBI International S03E09 Rules of Blackjack 720p AMZN WEB-DL DDP5 1 H 264-FLUX
[RR/NF/CU]
Size: 1.3GB mkv H264 (HIGH) / EAC3  HD  1280x720

FBI: International
File Information
[img]http://lookpic.com/cdn/i2/t/0417202406452469-1.jpg[/img]
[img]http://lookpic.com/cdn/i2/t/0417202406452469-2.jpg[/img]
[img]http://lookpic.com/cdn/i2/t/0417202406452469-3.jpg[/img]

General
Unique ID                                : 295989839078046852484883451035628061938 (0xDEAD91C642E2E239C55B0946069FC4F2)
Complete name                            : FBI International S03E09 Rules of Blackjack 720p AMZN WEB-DL DDP5 1 H 264-FLUX.mkv
Format                                   : Matroska
Format version                           : Version 4
File size                                : 1.29 GiB
Duration                                 : 40 min 15 s
Overall bit rate                         : 4 604 kb/s
Frame rate                               : 23.976 FPS
Writing application                      : mkvmerge v83.0 ('Circle Of Friends') 64-bit
Writing library                          : libebml v1.4.5 + libmatroska v1.7.1

Video
ID                                       : 1
Format                                   : AVC
Format/Info                              : Advanced Video Codec
Format profile                           : High@L3.1
Format settings                          : CABAC / 4 Ref Frames
Format settings, CABAC                   : Yes
Format settings, Reference frames        : 4 frames
Codec ID                                 : V_MPEG4/ISO/AVC
Duration                                 : 40 min 15 s
Bit rate mode                            : Constant
Bit rate                                 : 3 961 kb/s
Nominal bit rate                         : 6 000 kb/s
Width                                    : 1 280 pixels
Height                                   : 720 pixels
Display aspect ratio                     : 16:9
Frame rate mode                          : Constant
Frame rate                               : 23.976 (24000/1001) FPS
Color space                              : YUV
Chroma subsampling                       : 4:2:0
Bit depth                                : 8 bits
Scan type                                : Progressive
Bits/(Pixel*Frame)                       : 0.179
Stream size                              : 1.11 GiB (86%)
Language                                 : English (US)
Default                                  : Yes
Forced                                   : No
Color range                              : Limited
Color primaries                          : BT.709
Transfer characteristics                 : BT.709
Matrix coefficients                      : BT.709

Audio
ID                                       : 2
Format                                   : E-AC-3
Format/Info                              : Enhanced AC-3
Commercial name                          : Dolby Digital Plus
Codec ID                                 : A_EAC3
Duration                                 : 40 min 15 s
Bit rate mode                            : Constant
Bit rate                                 : 640 kb/s
Channel(s)                               : 6 channels
Channel layout                           : L R C LFE Ls Rs
Sampling rate                            : 48.0 kHz
Frame rate                               : 31.250 FPS (1536 SPF)
Compression mode                         : Lossy
Stream size                              : 184 MiB (14%)
Language                                 : English
Service kind                             : Complete Main
Default                                  : Yes
Forced                                   : No

Text #1
ID                                       : 3
Format                                   : UTF-8
Codec ID                                 : S_TEXT/UTF8
Codec ID/Info                            : UTF-8 Plain Text
Duration                                 : 39 min 27 s
Bit rate                                 : 72 b/s
Frame rate                               : 0.281 FPS
Count of elements                        : 665
Stream size                              : 21.0 KiB (0%)
Language                                 : English (US)
Default                                  : No
Forced                                   : No

Text #2
ID                                       : 4
Format                                   : UTF-8
Codec ID                                 : S_TEXT/UTF8
Codec ID/Info                            : UTF-8 Plain Text
Duration                                 : 40 min 9 s
Bit rate                                 : 76 b/s
Frame rate                               : 0.320 FPS
Count of elements                        : 771
Stream size                              : 22.6 KiB (0%)
Title                                    : SDH
Language                                 : English (US)
Default                                  : No
Forced                                   : No

Menu
00:00:00.000                             : en:Scene 1
00:39:43.000                             : en:End Credits



Download
File Container: MKV
Video/Audio Codec: H264 (HIGH) EAC3
Video Resolution: 1280x720

1 Response to "[RR/NF/CU] FBI International S03E09 Rules of Blackjack 720p AMZN WEB-DL DDP5 1 H 264-FLUX (1.3GB)"
04/17/24
11:14:17
ReadyPlayerOne

Thank You

Please Login to post a comment.
If you don't have any account, please Register.
  • Subscribe my Feeds
  • Facebook
Encoding Queue:  x264  x265

Latest Episodes

Popular Movies and TV Shows

  • The Fall Guy
  • Boy Kills World
  • STAX: Soulsville, U.S.A.
  • Expend4bles
  • From Dreams to Tragedy: The Fire that Shook Brazilian Football
  • Lolla: The Story of Lollapalooza
  • The Veil
  • Young Sheldon
  • WWE Raw
  • 8 Found Dead
  • Seize Them!
  • Extraction
  • Pointless
  • The Simpsons
  • Stress Positions
  • Club Zero
  • The Name of the Rose
  • All American
  • S.W.A.T.
  • Blue Bloods
  • Tracker
  • TMZ Presents: The Downfall of Diddy
  • Devil in the Flesh
  • Tales of Ordinary Madness
  • Ghost Adventures

Recent Comments

  • OldMovies:

    Has Czech subtitles but not English. Need forced English for the foreign language parts.

  • PROFessorMorrynarty: Would it be possible to upload 'Lego masters Australia' Series 6 Episode 6 Please? It's the only one...
  • mentalityx:

    Thx mate.

  • Bud: Is the search engine down for everyone, or just me? It just says 'You're forbidden!' whenever I lo...
  • 23d1:

    not episode 4 it is episode 3

  • 23d1:

    not episode 4 it is episode 3

  • 23d1:

    not episode 4 it is episode 3

  • 23d1:

    not episode 4 it is episode 3

  • aaroz88:

    Trimas!!

  • mptoo: I don't often ask this, infact this would be the first time, but I don't suppose there is any chance...
  • Cinque_Persson:

    btw:
    quote /quote
    is broken

  • gabrielsyme:

    Sorry but where is the clicknupload link?

  • mike1204:

    Is this episode doomed??? The RMX avi version is only 12 minutes long!!!

Archives