Sign Up   |   Sign In  
Bob Hearts AbisholaDune: Part TwoKiller Fortune TellerThe 100th: Billy Joel at Madison Square Garden - The Greatest Arena Run of All TimeThe GentlemenTigerBlue LightsMoney TalksFamily GuyStill: A Michael J. Fox MovieHundreds of BeaversThe Great NorthThe SympathizerTrackerModel HouseAbba: How They Won EurovisionWhen Calls the HeartKurt Cobain: Moments That Shook MusicFalloutBeacon 23Sullivan's CrossingThe ChannelThe Batman vs. DraculaThere's Still TomorrowFBI

Announcements

04/03

2024

No

Comments

FBI Most Wanted S02E01 Rampage 1080p AMZN WEB-DL DDP5 1 H 264-NTb
[RR/NF]
Size: 3GB mkv H264 (HIGH) / EAC3  HD  1920x1080

FBI: Most Wanted
File Information
[img]http://lookpic.com/cdn/i2/t/0403202403055876-1.jpg[/img]
[img]http://lookpic.com/cdn/i2/t/0403202403055876-2.jpg[/img]
[img]http://lookpic.com/cdn/i2/t/0403202403055876-3.jpg[/img]

General
Unique ID                                : 274211057861472022451755336259675249828 (0xCE4B20F5382A247B4092B053EAD65CA4)
Complete name                            : FBI Most Wanted S02E01 Rampage 1080p AMZN WEB-DL DDP5 1 H 264-NTb.mkv
Format                                   : Matroska
Format version                           : Version 4
File size                                : 3.04 GiB
Duration                                 : 43 min 8 s
Overall bit rate                         : 10.1 Mb/s
Frame rate                               : 24.000 FPS
Writing application                      : mkvmerge v45.0.0 ('Heaven in Pennies') 64-bit
Writing library                          : libebml v1.3.10 + libmatroska v1.5.2

Video
ID                                       : 1
Format                                   : AVC
Format/Info                              : Advanced Video Codec
Format profile                           : High@L4
Format settings                          : CABAC / 4 Ref Frames
Format settings, CABAC                   : Yes
Format settings, Reference frames        : 4 frames
Codec ID                                 : V_MPEG4/ISO/AVC
Duration                                 : 43 min 8 s
Bit rate mode                            : Constant
Bit rate                                 : 9 458 kb/s
Nominal bit rate                         : 10 000 kb/s
Width                                    : 1 920 pixels
Height                                   : 1 080 pixels
Display aspect ratio                     : 16:9
Frame rate mode                          : Constant
Frame rate                               : 24.000 FPS
Color space                              : YUV
Chroma subsampling                       : 4:2:0
Bit depth                                : 8 bits
Scan type                                : Progressive
Bits/(Pixel*Frame)                       : 0.190
Stream size                              : 2.85 GiB (94%)
Default                                  : Yes
Forced                                   : No
Color range                              : Limited
Color primaries                          : BT.709
Transfer characteristics                 : BT.709
Matrix coefficients                      : BT.709

Audio
ID                                       : 2
Format                                   : E-AC-3
Format/Info                              : Enhanced AC-3
Commercial name                          : Dolby Digital Plus
Codec ID                                 : A_EAC3
Duration                                 : 43 min 8 s
Bit rate mode                            : Constant
Bit rate                                 : 640 kb/s
Channel(s)                               : 6 channels
Channel layout                           : L R C LFE Ls Rs
Sampling rate                            : 48.0 kHz
Frame rate                               : 31.250 FPS (1536 SPF)
Compression mode                         : Lossy
Stream size                              : 197 MiB (6%)
Language                                 : English
Service kind                             : Complete Main
Default                                  : Yes
Forced                                   : No

Text
ID                                       : 3
Format                                   : UTF-8
Codec ID                                 : S_TEXT/UTF8
Codec ID/Info                            : UTF-8 Plain Text
Duration                                 : 42 min 52 s
Bit rate                                 : 99 b/s
Frame rate                               : 0.382 FPS
Count of elements                        : 982
Stream size                              : 31.1 KiB (0%)
Title                                    : SDH
Language                                 : English
Default                                  : No
Forced                                   : No



Download
File Container: MKV
Video/Audio Codec: H264 (HIGH) EAC3
Video Resolution: 1920x1080
Please Login to post a comment.
If you don't have any account, please Register.
  • Subscribe my Feeds
  • Facebook
Encoding Queue:  x264  x265

Latest Episodes

Popular Movies and TV Shows

  • Bob Hearts Abishola
  • Dune: Part Two
  • Killer Fortune Teller
  • The 100th: Billy Joel at Madison Square Garden - The Greatest Arena Run of All Time
  • The Gentlemen
  • Tiger
  • Blue Lights
  • Money Talks
  • Family Guy
  • Still: A Michael J. Fox Movie
  • Hundreds of Beavers
  • The Great North
  • The Sympathizer
  • Tracker
  • Model House
  • Abba: How They Won Eurovision
  • When Calls the Heart
  • Kurt Cobain: Moments That Shook Music
  • Fallout
  • Beacon 23
  • Sullivan's Crossing
  • The Channel
  • The Batman vs. Dracula
  • There's Still Tomorrow
  • FBI

Recent Comments

  • Bud:

    Are you ever going to put up Thursday's episode with Liev Schreiber?

  • alp-engin:

    When will that maintenance be over? Please...

  • mentalityx:

    Rad bloke

  • DownloadHostInspector:

    so far these RMTeam uploads always have a working link. DownloadHostInspector approved!

  • DownloadHostInspector:

    ah yes, this upload has a host that works. clicknupload. DownloadHostInspector approved!

  • DownloadHostInspector: Why are all the download hosts trash? none of them let you download it
  • Qua4ratic:

    clicknupload link plz

  • ppoo:

    Please, can you add "Real Time with Bill Maher S22E11" ??

  • theahtisham:

    Kindly upload Ep. 3 and 4 as well.

Archives