Sign Up   |   Sign In  
Star Trek: DiscoveryGrey's AnatomyHacksThe Blue AngelsReunionThe Fall GuyThe Good DoctorEvilConcordiaWater's EdgeCarol Doda Topless at the CondorLadies and Gentlemen: The Rolling StonesChicago FireChicago P.D.The RookieMad GodBoy Kills WorldAfflictionFBI: Most WantedFBIDark MatterRachel Feinstein: Big GuyMoonedThe Manchurian CandidateThe Daily Show

Announcements

04/24

2024

1

Comments

FBI Most Wanted S05E10 Bonne Terre 1080p AMZN WEB-DL DDP5 1 H 264-FLUX
[RR/NF]
Size: 2.7GB mkv H264 (HIGH) / EAC3  HD  1920x1080

FBI: Most Wanted
File Information
[img]http://lookpic.com/cdn/i2/t/0424202407200091-1.jpg[/img]
[img]http://lookpic.com/cdn/i2/t/0424202407200091-2.jpg[/img]
[img]http://lookpic.com/cdn/i2/t/0424202407200091-3.jpg[/img]

General
Unique ID                                : 152089867218013264229471261469522695051 (0x726B716541B8DADF37B758D115AE938B)
Complete name                            : FBI Most Wanted S05E10 Bonne Terre 1080p AMZN WEB-DL DDP5 1 H 264-FLUX.mkv
Format                                   : Matroska
Format version                           : Version 4
File size                                : 2.70 GiB
Duration                                 : 42 min 33 s
Overall bit rate                         : 9 067 kb/s
Frame rate                               : 23.976 FPS
Writing application                      : mkvmerge v83.0 ('Circle Of Friends') 64-bit
Writing library                          : libebml v1.4.5 + libmatroska v1.7.1

Video
ID                                       : 1
Format                                   : AVC
Format/Info                              : Advanced Video Codec
Format profile                           : High@L4
Format settings                          : CABAC / 4 Ref Frames
Format settings, CABAC                   : Yes
Format settings, Reference frames        : 4 frames
Codec ID                                 : V_MPEG4/ISO/AVC
Duration                                 : 42 min 33 s
Bit rate mode                            : Constant
Bit rate                                 : 8 424 kb/s
Nominal bit rate                         : 10 000 kb/s
Width                                    : 1 920 pixels
Height                                   : 1 080 pixels
Display aspect ratio                     : 16:9
Frame rate mode                          : Constant
Frame rate                               : 23.976 (24000/1001) FPS
Color space                              : YUV
Chroma subsampling                       : 4:2:0
Bit depth                                : 8 bits
Scan type                                : Progressive
Bits/(Pixel*Frame)                       : 0.169
Stream size                              : 2.50 GiB (93%)
Language                                 : English (US)
Default                                  : Yes
Forced                                   : No
Color range                              : Limited
Color primaries                          : BT.709
Transfer characteristics                 : BT.709
Matrix coefficients                      : BT.709

Audio
ID                                       : 2
Format                                   : E-AC-3
Format/Info                              : Enhanced AC-3
Commercial name                          : Dolby Digital Plus
Codec ID                                 : A_EAC3
Duration                                 : 42 min 33 s
Bit rate mode                            : Constant
Bit rate                                 : 640 kb/s
Channel(s)                               : 6 channels
Channel layout                           : L R C LFE Ls Rs
Sampling rate                            : 48.0 kHz
Frame rate                               : 31.250 FPS (1536 SPF)
Compression mode                         : Lossy
Stream size                              : 195 MiB (7%)
Language                                 : English
Service kind                             : Complete Main
Default                                  : Yes
Forced                                   : No

Text #1
ID                                       : 3
Format                                   : UTF-8
Codec ID                                 : S_TEXT/UTF8
Codec ID/Info                            : UTF-8 Plain Text
Duration                                 : 41 min 10 s
Bit rate                                 : 89 b/s
Frame rate                               : 0.355 FPS
Count of elements                        : 877
Stream size                              : 27.1 KiB (0%)
Language                                 : English (US)
Default                                  : No
Forced                                   : No

Text #2
ID                                       : 4
Format                                   : UTF-8
Codec ID                                 : S_TEXT/UTF8
Codec ID/Info                            : UTF-8 Plain Text
Duration                                 : 42 min 27 s
Bit rate                                 : 92 b/s
Frame rate                               : 0.381 FPS
Count of elements                        : 971
Stream size                              : 28.9 KiB (0%)
Title                                    : SDH
Language                                 : English (US)
Default                                  : No
Forced                                   : No

Menu
00:00:00.000                             : en:Scene 1
00:42:01.000                             : en:End Credits



Download
File Container: MKV
Video/Audio Codec: H264 (HIGH) EAC3
Video Resolution: 1920x1080

1 Response to "[RR/NF] FBI Most Wanted S05E10 Bonne Terre 1080p AMZN WEB-DL DDP5 1 H 264-FLUX (2.7GB)"
04/24/24
09:00:13
ReadyPlayerOne

Thank You

Please Login to post a comment.
If you don't have any account, please Register.
  • Subscribe my Feeds
  • Facebook
Encoding Queue:  x264  x265

Latest Episodes

Popular Movies and TV Shows

  • Star Trek: Discovery
  • Grey's Anatomy
  • Hacks
  • The Blue Angels
  • Reunion
  • The Fall Guy
  • The Good Doctor
  • Evil
  • Concordia
  • Water's Edge
  • Carol Doda Topless at the Condor
  • Ladies and Gentlemen: The Rolling Stones
  • Chicago Fire
  • Chicago P.D.
  • The Rookie
  • Mad God
  • Boy Kills World
  • Affliction
  • FBI: Most Wanted
  • FBI
  • Dark Matter
  • Rachel Feinstein: Big Guy
  • Mooned
  • The Manchurian Candidate
  • The Daily Show

Recent Comments

  • big_ralphie: Just sitting down to watch and, yes there are subtitles...in ITALIAN ONLY. ENGLISH subs might be hel...
  • Geependo:

    All links are dead

  • OldMovies:

    Has Czech subtitles but not English. Need forced English for the foreign language parts.

  • PROFessorMorrynarty: Would it be possible to upload 'Lego masters Australia' Series 6 Episode 6 Please? It's the only one...
  • mentalityx:

    Thx mate.

  • Bud: Is the search engine down for everyone, or just me? It just says 'You're forbidden!' whenever I lo...
  • 23d1:

    not episode 4 it is episode 3

  • 23d1:

    not episode 4 it is episode 3

  • 23d1:

    not episode 4 it is episode 3

  • 23d1:

    not episode 4 it is episode 3

Archives