Sign Up   |   Sign In  
My Adventures with SupermanChristmas Is CanceledThe Body StealersSatan's ChildrenTop Chef: The Dish with KishCosta!!Mayor of KingstownInterview with the VampireHotel CocaineDaaaaaali!OctopussyLook to the LightLadies in BlackBilly the KidWalkerKung Fu HustleLicence to KillThere's Something About MaryWWE NXTThe Loud HouseThe Bold and the BeautifulVice News Presents: Mass Shooting AmericaInside Out 2My Sexual Abuse: The SitcomThe Daily Show

Announcements

05/15

2024

1

Comments

FBI Most Wanted S05E12 Derby Day 1080p AMZN WEB-DL DDP5 1 H 264-NTb
[RR/NF]
Size: 2.7GB mkv H264 (HIGH) / EAC3  HD  1920x1080

FBI: Most Wanted
File Information
[img]http://lookpic.com/cdn/i2/t/0515202408251076-1.jpg[/img]
[img]http://lookpic.com/cdn/i2/t/0515202408251076-2.jpg[/img]
[img]http://lookpic.com/cdn/i2/t/0515202408251076-3.jpg[/img]

General
Unique ID                                : 167774148560304865440500703505612183195 (0x7E38202B4BA3A51087D478101C4E969B)
Complete name                            : FBI Most Wanted S05E12 Derby Day 1080p AMZN WEB-DL DDP5 1 H 264-NTb.mkv
Format                                   : Matroska
Format version                           : Version 4
File size                                : 2.75 GiB
Duration                                 : 42 min 29 s
Overall bit rate                         : 9 257 kb/s
Frame rate                               : 23.976 FPS
Writing application                      : mkvmerge v84.0 ('Sleeper') 64-bit
Writing library                          : libebml v1.4.5 + libmatroska v1.7.1

Video
ID                                       : 1
Format                                   : AVC
Format/Info                              : Advanced Video Codec
Format profile                           : High@L4
Format settings                          : CABAC / 4 Ref Frames
Format settings, CABAC                   : Yes
Format settings, Reference frames        : 4 frames
Codec ID                                 : V_MPEG4/ISO/AVC
Duration                                 : 42 min 29 s
Bit rate mode                            : Constant
Bit rate                                 : 8 615 kb/s
Nominal bit rate                         : 10 000 kb/s
Width                                    : 1 920 pixels
Height                                   : 1 080 pixels
Display aspect ratio                     : 16:9
Frame rate mode                          : Constant
Frame rate                               : 23.976 (24000/1001) FPS
Color space                              : YUV
Chroma subsampling                       : 4:2:0
Bit depth                                : 8 bits
Scan type                                : Progressive
Bits/(Pixel*Frame)                       : 0.173
Stream size                              : 2.56 GiB (93%)
Default                                  : Yes
Forced                                   : No
Color range                              : Limited
Color primaries                          : BT.709
Transfer characteristics                 : BT.709
Matrix coefficients                      : BT.709

Audio
ID                                       : 2
Format                                   : E-AC-3
Format/Info                              : Enhanced AC-3
Commercial name                          : Dolby Digital Plus
Codec ID                                 : A_EAC3
Duration                                 : 42 min 29 s
Bit rate mode                            : Constant
Bit rate                                 : 640 kb/s
Channel(s)                               : 6 channels
Channel layout                           : L R C LFE Ls Rs
Sampling rate                            : 48.0 kHz
Frame rate                               : 31.250 FPS (1536 SPF)
Compression mode                         : Lossy
Stream size                              : 195 MiB (7%)
Language                                 : English (US)
Service kind                             : Complete Main
Default                                  : Yes
Forced                                   : No

Text #1
ID                                       : 3
Format                                   : UTF-8
Codec ID                                 : S_TEXT/UTF8
Codec ID/Info                            : UTF-8 Plain Text
Duration                                 : 41 min 45 s
Bit rate                                 : 92 b/s
Frame rate                               : 0.354 FPS
Count of elements                        : 886
Stream size                              : 28.3 KiB (0%)
Language                                 : English (US)
Default                                  : No
Forced                                   : No

Text #2
ID                                       : 4
Format                                   : UTF-8
Codec ID                                 : S_TEXT/UTF8
Codec ID/Info                            : UTF-8 Plain Text
Duration                                 : 42 min 21 s
Bit rate                                 : 94 b/s
Frame rate                               : 0.376 FPS
Count of elements                        : 955
Stream size                              : 29.4 KiB (0%)
Title                                    : SDH
Language                                 : English (US)
Default                                  : No
Forced                                   : No



Download
File Container: MKV
Video/Audio Codec: H264 (HIGH) EAC3
Video Resolution: 1920x1080

1 Response to "[RR/NF] FBI Most Wanted S05E12 Derby Day 1080p AMZN WEB-DL DDP5 1 H 264-NTb (2.7GB)"
05/15/24
13:38:44
ReadyPlayerOne

Thank You

Please Login to post a comment.
If you don't have any account, please Register.
  • Subscribe my Feeds
  • Facebook
Encoding Queue:  x264  x265

Latest Episodes

Popular Movies and TV Shows

  • My Adventures with Superman
  • Christmas Is Canceled
  • The Body Stealers
  • Satan's Children
  • Top Chef: The Dish with Kish
  • Costa!!
  • Mayor of Kingstown
  • Interview with the Vampire
  • Hotel Cocaine
  • Daaaaaali!
  • Octopussy
  • Look to the Light
  • Ladies in Black
  • Billy the Kid
  • Walker
  • Kung Fu Hustle
  • Licence to Kill
  • There's Something About Mary
  • WWE NXT
  • The Loud House
  • The Bold and the Beautiful
  • Vice News Presents: Mass Shooting America
  • Inside Out 2
  • My Sexual Abuse: The Sitcom
  • The Daily Show

Recent Comments

Archives