Sign Up   |   Sign In  
Under the BridgeFBIFBI: InternationalGods of EgyptHanky PankyDrive-Away DollsThe Big Door PrizeLootFBI: Most WantedMR-9: Do or DieAccidental TexanMean GirlsShogunMonkey ManArthur the KingNCISThe NeighborhoodDowntown OwlNCIS: Hawai'iBob Hearts AbisholaThe SimpsonsAftermathOne LifeTime AddictsTracker

Announcements

03/31

2024

No

Comments

Fraggle Rock Back to the Rock S02E03 When Mokey Met Lanford 720p ATVP WEB-DL DDP5 1 Atmos H 264-FLUX
[RR/NF/CU]
Size: 691MB mkv H264 (HIGH) / EAC3  HD  1280x720

Fraggle Rock: Back to the Rock
File Information
[img]http://lookpic.com/cdn/i2/t/0331202400552815-1.jpg[/img]
[img]http://lookpic.com/cdn/i2/t/0331202400552815-2.jpg[/img]
[img]http://lookpic.com/cdn/i2/t/0331202400552815-3.jpg[/img]

General
Unique ID                                : 199060714577427565807010345264010251517 (0x95C1B2F7ED87F07D3BBB9BC070CC4CFD)
Complete name                            : Fraggle Rock Back to the Rock S02E03 When Mokey Met Lanford 720p ATVP WEB-DL DDP5 1 Atmos H 264-FLUX.mkv
Format                                   : Matroska
Format version                           : Version 4
File size                                : 692 MiB
Duration                                 : 27 min 0 s
Overall bit rate                         : 3 578 kb/s
Frame rate                               : 23.976 FPS
Writing application                      : mkvmerge v81.0 ('Milliontown') 64-bit
Writing library                          : libebml v1.4.4 + libmatroska v1.7.1

Video
ID                                       : 1
Format                                   : AVC
Format/Info                              : Advanced Video Codec
Format profile                           : High@L3.1
Format settings                          : CABAC / 5 Ref Frames
Format settings, CABAC                   : Yes
Format settings, Reference frames        : 5 frames
Codec ID                                 : V_MPEG4/ISO/AVC
Duration                                 : 27 min 0 s
Bit rate                                 : 2 801 kb/s
Width                                    : 1 280 pixels
Height                                   : 720 pixels
Display aspect ratio                     : 16:9
Frame rate mode                          : Constant
Frame rate                               : 23.976 (24000/1001) FPS
Color space                              : YUV
Chroma subsampling                       : 4:2:0
Bit depth                                : 8 bits
Scan type                                : Progressive
Bits/(Pixel*Frame)                       : 0.127
Stream size                              : 541 MiB (78%)
Language                                 : English
Default                                  : Yes
Forced                                   : No
Color range                              : Limited
Color primaries                          : BT.709
Transfer characteristics                 : BT.709
Matrix coefficients                      : BT.709

Audio
ID                                       : 2
Format                                   : E-AC-3 JOC
Format/Info                              : Enhanced AC-3 with Joint Object Coding
Commercial name                          : Dolby Digital Plus with Dolby Atmos
Codec ID                                 : A_EAC3
Duration                                 : 27 min 0 s
Bit rate mode                            : Constant
Bit rate                                 : 768 kb/s
Channel(s)                               : 6 channels
Channel layout                           : L R C LFE Ls Rs
Sampling rate                            : 48.0 kHz
Frame rate                               : 31.250 FPS (1536 SPF)
Compression mode                         : Lossy
Stream size                              : 148 MiB (21%)
Language                                 : English
Service kind                             : Complete Main
Default                                  : Yes
Forced                                   : No
Complexity index                         : 16
Number of dynamic objects                : 15
Bed channel count                        : 1 channel
Bed channel configuration                : LFE

Text #1
ID                                       : 3
Format                                   : UTF-8
Codec ID                                 : S_TEXT/UTF8
Codec ID/Info                            : UTF-8 Plain Text
Duration                                 : 25 min 2 s
Bit rate                                 : 81 b/s
Frame rate                               : 0.292 FPS
Count of elements                        : 439
Stream size                              : 15.0 KiB (0%)
Language                                 : English
Default                                  : No
Forced                                   : No

Text #2
ID                                       : 4
Format                                   : UTF-8
Codec ID                                 : S_TEXT/UTF8
Codec ID/Info                            : UTF-8 Plain Text
Duration                                 : 25 min 18 s
Bit rate                                 : 109 b/s
Frame rate                               : 0.365 FPS
Count of elements                        : 555
Stream size                              : 20.4 KiB (0%)
Title                                    : SDH
Language                                 : English
Default                                  : No
Forced                                   : No

Text #3
ID                                       : 5
Format                                   : UTF-8
Codec ID                                 : S_TEXT/UTF8
Codec ID/Info                            : UTF-8 Plain Text
Duration                                 : 26 min 26 s
Bit rate                                 : 108 b/s
Frame rate                               : 0.275 FPS
Count of elements                        : 437
Stream size                              : 21.1 KiB (0%)
Language                                 : Arabic
Default                                  : No
Forced                                   : No

Text #4
ID                                       : 6
Format                                   : UTF-8
Codec ID                                 : S_TEXT/UTF8
Codec ID/Info                            : UTF-8 Plain Text
Duration                                 : 26 min 26 s
Bit rate                                 : 102 b/s
Frame rate                               : 0.228 FPS
Count of elements                        : 362
Stream size                              : 19.9 KiB (0%)
Language                                 : Bulgarian
Default                                  : No
Forced                                   : No

Text #5
ID                                       : 7
Format                                   : UTF-8
Codec ID                                 : S_TEXT/UTF8
Codec ID/Info                            : UTF-8 Plain Text
Duration                                 : 26 min 26 s
Bit rate                                 : 61 b/s
Frame rate                               : 0.276 FPS
Count of elements                        : 438
Stream size                              : 11.9 KiB (0%)
Title                                    : Simplified
Language                                 : Chinese (Simplified)
Default                                  : No
Forced                                   : No

Text #6
ID                                       : 8
Format                                   : UTF-8
Codec ID                                 : S_TEXT/UTF8
Codec ID/Info                            : UTF-8 Plain Text
Duration                                 : 26 min 26 s
Bit rate                                 : 64 b/s
Frame rate                               : 0.275 FPS
Count of elements                        : 437
Stream size                              : 12.6 KiB (0%)
Title                                    : Traditional
Language                                 : Chinese (Traditional)
Default                                  : No
Forced                                   : No

Text #7
ID                                       : 9
Format                                   : UTF-8
Codec ID                                 : S_TEXT/UTF8
Codec ID/Info                            : UTF-8 Plain Text
Duration                                 : 26 min 26 s
Bit rate                                 : 64 b/s
Frame rate                               : 0.251 FPS
Count of elements                        : 398
Stream size                              : 12.4 KiB (0%)
Language                                 : Czech
Default                                  : No
Forced                                   : No

Text #8
ID                                       : 10
Format                                   : UTF-8
Codec ID                                 : S_TEXT/UTF8
Codec ID/Info                            : UTF-8 Plain Text
Duration                                 : 26 min 29 s
Bit rate                                 : 72 b/s
Frame rate                               : 0.220 FPS
Count of elements                        : 350
Stream size                              : 14.1 KiB (0%)
Language                                 : Danish
Default                                  : No
Forced                                   : No

Text #9
ID                                       : 11
Format                                   : UTF-8
Codec ID                                 : S_TEXT/UTF8
Codec ID/Info                            : UTF-8 Plain Text
Duration                                 : 25 min 24 s
Bit rate                                 : 74 b/s
Frame rate                               : 0.260 FPS
Count of elements                        : 397
Stream size                              : 14.0 KiB (0%)
Language                                 : German
Default                                  : No
Forced                                   : No

Text #10
ID                                       : 12
Format                                   : UTF-8
Codec ID                                 : S_TEXT/UTF8
Codec ID/Info                            : UTF-8 Plain Text
Duration                                 : 26 min 26 s
Bit rate                                 : 109 b/s
Frame rate                               : 0.262 FPS
Count of elements                        : 416
Stream size                              : 21.2 KiB (0%)
Language                                 : Greek
Default                                  : No
Forced                                   : No

Text #11
ID                                       : 13
Format                                   : UTF-8
Codec ID                                 : S_TEXT/UTF8
Codec ID/Info                            : UTF-8 Plain Text
Duration                                 : 26 min 26 s
Bit rate                                 : 72 b/s
Frame rate                               : 0.277 FPS
Count of elements                        : 440
Stream size                              : 14.0 KiB (0%)
Title                                    : Latin American
Language                                 : Spanish (Latin America)
Default                                  : No
Forced                                   : No

Text #12
ID                                       : 14
Format                                   : UTF-8
Codec ID                                 : S_TEXT/UTF8
Codec ID/Info                            : UTF-8 Plain Text
Duration                                 : 26 min 26 s
Bit rate                                 : 79 b/s
Frame rate                               : 0.287 FPS
Count of elements                        : 455
Stream size                              : 15.4 KiB (0%)
Language                                 : Spanish (ES)
Default                                  : No
Forced                                   : No

Text #13
ID                                       : 15
Format                                   : UTF-8
Codec ID                                 : S_TEXT/UTF8
Codec ID/Info                            : UTF-8 Plain Text
Duration                                 : 26 min 26 s
Bit rate                                 : 67 b/s
Frame rate                               : 0.245 FPS
Count of elements                        : 388
Stream size                              : 13.0 KiB (0%)
Language                                 : Estonian
Default                                  : No
Forced                                   : No

Text #14
ID                                       : 16
Format                                   : UTF-8
Codec ID                                 : S_TEXT/UTF8
Codec ID/Info                            : UTF-8 Plain Text
Duration                                 : 26 min 25 s
Bit rate                                 : 66 b/s
Frame rate                               : 0.263 FPS
Count of elements                        : 417
Stream size                              : 12.9 KiB (0%)
Language                                 : Finnish
Default                                  : No
Forced                                   : No

Text #15
ID                                       : 17
Format                                   : UTF-8
Codec ID                                 : S_TEXT/UTF8
Codec ID/Info                            : UTF-8 Plain Text
Duration                                 : 26 min 24 s
Bit rate                                 : 70 b/s
Frame rate                               : 0.283 FPS
Count of elements                        : 449
Stream size                              : 13.7 KiB (0%)
Title                                    : Canadian
Language                                 : French (CA)
Default                                  : No
Forced                                   : No

Text #16
ID                                       : 18
Format                                   : UTF-8
Codec ID                                 : S_TEXT/UTF8
Codec ID/Info                            : UTF-8 Plain Text
Duration                                 : 26 min 24 s
Bit rate                                 : 70 b/s
Frame rate                               : 0.283 FPS
Count of elements                        : 449
Stream size                              : 13.7 KiB (0%)
Language                                 : French (FR)
Default                                  : No
Forced                                   : No

Text #17
ID                                       : 19
Format                                   : UTF-8
Codec ID                                 : S_TEXT/UTF8
Codec ID/Info                            : UTF-8 Plain Text
Duration                                 : 26 min 26 s
Bit rate                                 : 108 b/s
Frame rate                               : 0.276 FPS
Count of elements                        : 438
Stream size                              : 21.0 KiB (0%)
Language                                 : Hebrew
Default                                  : No
Forced                                   : No

Text #18
ID                                       : 20
Format                                   : UTF-8
Codec ID                                 : S_TEXT/UTF8
Codec ID/Info                            : UTF-8 Plain Text
Duration                                 : 26 min 26 s
Bit rate                                 : 195 b/s
Frame rate                               : 0.276 FPS
Count of elements                        : 438
Stream size                              : 37.9 KiB (0%)
Language                                 : Hindi
Default                                  : No
Forced                                   : No

Text #19
ID                                       : 21
Format                                   : UTF-8
Codec ID                                 : S_TEXT/UTF8
Codec ID/Info                            : UTF-8 Plain Text
Duration                                 : 26 min 26 s
Bit rate                                 : 76 b/s
Frame rate                               : 0.278 FPS
Count of elements                        : 441
Stream size                              : 14.8 KiB (0%)
Language                                 : Hungarian
Default                                  : No
Forced                                   : No

Text #20
ID                                       : 22
Format                                   : UTF-8
Codec ID                                 : S_TEXT/UTF8
Codec ID/Info                            : UTF-8 Plain Text
Duration                                 : 26 min 26 s
Bit rate                                 : 78 b/s
Frame rate                               : 0.277 FPS
Count of elements                        : 440
Stream size                              : 15.3 KiB (0%)
Language                                 : Indonesian
Default                                  : No
Forced                                   : No

Text #21
ID                                       : 23
Format                                   : UTF-8
Codec ID                                 : S_TEXT/UTF8
Codec ID/Info                            : UTF-8 Plain Text
Duration                                 : 26 min 21 s
Bit rate                                 : 81 b/s
Frame rate                               : 0.269 FPS
Count of elements                        : 426
Stream size                              : 15.8 KiB (0%)
Language                                 : Italian
Default                                  : No
Forced                                   : No

Text #22
ID                                       : 24
Format                                   : UTF-8
Codec ID                                 : S_TEXT/UTF8
Codec ID/Info                            : UTF-8 Plain Text
Duration                                 : 26 min 26 s
Bit rate                                 : 62 b/s
Frame rate                               : 0.248 FPS
Count of elements                        : 394
Stream size                              : 12.1 KiB (0%)
Language                                 : Japanese
Default                                  : No
Forced                                   : No

Text #23
ID                                       : 25
Format                                   : UTF-8
Codec ID                                 : S_TEXT/UTF8
Codec ID/Info                            : UTF-8 Plain Text
Duration                                 : 26 min 26 s
Bit rate                                 : 77 b/s
Frame rate                               : 0.276 FPS
Count of elements                        : 438
Stream size                              : 15.1 KiB (0%)
Language                                 : Korean
Default                                  : No
Forced                                   : No

Text #24
ID                                       : 26
Format                                   : UTF-8
Codec ID                                 : S_TEXT/UTF8
Codec ID/Info                            : UTF-8 Plain Text
Duration                                 : 26 min 26 s
Bit rate                                 : 73 b/s
Frame rate                               : 0.275 FPS
Count of elements                        : 437
Stream size                              : 14.2 KiB (0%)
Language                                 : Lithuanian
Default                                  : No
Forced                                   : No

Text #25
ID                                       : 27
Format                                   : UTF-8
Codec ID                                 : S_TEXT/UTF8
Codec ID/Info                            : UTF-8 Plain Text
Duration                                 : 26 min 26 s
Bit rate                                 : 71 b/s
Frame rate                               : 0.270 FPS
Count of elements                        : 429
Stream size                              : 13.8 KiB (0%)
Language                                 : Latvian
Default                                  : No
Forced                                   : No

Text #26
ID                                       : 28
Format                                   : UTF-8
Codec ID                                 : S_TEXT/UTF8
Codec ID/Info                            : UTF-8 Plain Text
Duration                                 : 26 min 26 s
Bit rate                                 : 72 b/s
Frame rate                               : 0.275 FPS
Count of elements                        : 437
Stream size                              : 14.1 KiB (0%)
Language                                 : Malay
Default                                  : No
Forced                                   : No

Text #27
ID                                       : 29
Format                                   : UTF-8
Codec ID                                 : S_TEXT/UTF8
Codec ID/Info                            : UTF-8 Plain Text
Duration                                 : 26 min 26 s
Bit rate                                 : 69 b/s
Frame rate                               : 0.202 FPS
Count of elements                        : 321
Stream size                              : 13.5 KiB (0%)
Language                                 : Dutch
Default                                  : No
Forced                                   : No

Text #28
ID                                       : 30
Format                                   : UTF-8
Codec ID                                 : S_TEXT/UTF8
Codec ID/Info                            : UTF-8 Plain Text
Duration                                 : 26 min 26 s
Bit rate                                 : 61 b/s
Frame rate                               : 0.207 FPS
Count of elements                        : 328
Stream size                              : 11.8 KiB (0%)
Title                                    : Flemish
Language                                 : Dutch (BE)
Default                                  : No
Forced                                   : No

Text #29
ID                                       : 31
Format                                   : UTF-8
Codec ID                                 : S_TEXT/UTF8
Codec ID/Info                            : UTF-8 Plain Text
Duration                                 : 26 min 26 s
Bit rate                                 : 68 b/s
Frame rate                               : 0.219 FPS
Count of elements                        : 348
Stream size                              : 13.2 KiB (0%)
Language                                 : Norwegian
Default                                  : No
Forced                                   : No

Text #30
ID                                       : 32
Format                                   : UTF-8
Codec ID                                 : S_TEXT/UTF8
Codec ID/Info                            : UTF-8 Plain Text
Duration                                 : 25 min 2 s
Bit rate                                 : 69 b/s
Frame rate                               : 0.265 FPS
Count of elements                        : 398
Stream size                              : 12.7 KiB (0%)
Language                                 : Polish
Default                                  : No
Forced                                   : No

Text #31
ID                                       : 33
Format                                   : UTF-8
Codec ID                                 : S_TEXT/UTF8
Codec ID/Info                            : UTF-8 Plain Text
Duration                                 : 26 min 26 s
Bit rate                                 : 68 b/s
Frame rate                               : 0.270 FPS
Count of elements                        : 428
Stream size                              : 13.3 KiB (0%)
Language                                 : Portuguese
Default                                  : No
Forced                                   : No

Text #32
ID                                       : 34
Format                                   : UTF-8
Codec ID                                 : S_TEXT/UTF8
Codec ID/Info                            : UTF-8 Plain Text
Duration                                 : 26 min 26 s
Bit rate                                 : 67 b/s
Frame rate                               : 0.257 FPS
Count of elements                        : 408
Stream size                              : 13.1 KiB (0%)
Title                                    : Brazilian
Language                                 : Portuguese (BR)
Default                                  : No
Forced                                   : No

Text #33
ID                                       : 35
Format                                   : UTF-8
Codec ID                                 : S_TEXT/UTF8
Codec ID/Info                            : UTF-8 Plain Text
Duration                                 : 26 min 26 s
Bit rate                                 : 113 b/s
Frame rate                               : 0.278 FPS
Count of elements                        : 441
Stream size                              : 22.1 KiB (0%)
Language                                 : Russian
Default                                  : No
Forced                                   : No

Text #34
ID                                       : 36
Format                                   : UTF-8
Codec ID                                 : S_TEXT/UTF8
Codec ID/Info                            : UTF-8 Plain Text
Duration                                 : 26 min 26 s
Bit rate                                 : 69 b/s
Frame rate                               : 0.274 FPS
Count of elements                        : 434
Stream size                              : 13.5 KiB (0%)
Language                                 : Slovak
Default                                  : No
Forced                                   : No

Text #35
ID                                       : 37
Format                                   : UTF-8
Codec ID                                 : S_TEXT/UTF8
Codec ID/Info                            : UTF-8 Plain Text
Duration                                 : 26 min 26 s
Bit rate                                 : 59 b/s
Frame rate                               : 0.227 FPS
Count of elements                        : 360
Stream size                              : 11.6 KiB (0%)
Language                                 : Slovenian
Default                                  : No
Forced                                   : No

Text #36
ID                                       : 38
Format                                   : UTF-8
Codec ID                                 : S_TEXT/UTF8
Codec ID/Info                            : UTF-8 Plain Text
Duration                                 : 25 min 14 s
Bit rate                                 : 80 b/s
Frame rate                               : 0.279 FPS
Count of elements                        : 423
Stream size                              : 14.9 KiB (0%)
Language                                 : Swedish
Default                                  : No
Forced                                   : No

Text #37
ID                                       : 39
Format                                   : UTF-8
Codec ID                                 : S_TEXT/UTF8
Codec ID/Info                            : UTF-8 Plain Text
Duration                                 : 26 min 26 s
Bit rate                                 : 223 b/s
Frame rate                               : 0.276 FPS
Count of elements                        : 438
Stream size                              : 43.3 KiB (0%)
Language                                 : Tamil
Default                                  : No
Forced                                   : No

Text #38
ID                                       : 40
Format                                   : UTF-8
Codec ID                                 : S_TEXT/UTF8
Codec ID/Info                            : UTF-8 Plain Text
Duration                                 : 26 min 26 s
Bit rate                                 : 224 b/s
Frame rate                               : 0.275 FPS
Count of elements                        : 437
Stream size                              : 43.4 KiB (0%)
Language                                 : Telugu
Default                                  : No
Forced                                   : No

Text #39
ID                                       : 41
Format                                   : UTF-8
Codec ID                                 : S_TEXT/UTF8
Codec ID/Info                            : UTF-8 Plain Text
Duration                                 : 26 min 26 s
Bit rate                                 : 178 b/s
Frame rate                               : 0.276 FPS
Count of elements                        : 438
Stream size                              : 34.6 KiB (0%)
Language                                 : Thai
Default                                  : No
Forced                                   : No

Text #40
ID                                       : 42
Format                                   : UTF-8
Codec ID                                 : S_TEXT/UTF8
Codec ID/Info                            : UTF-8 Plain Text
Duration                                 : 26 min 26 s
Bit rate                                 : 73 b/s
Frame rate                               : 0.274 FPS
Count of elements                        : 435
Stream size                              : 14.3 KiB (0%)
Language                                 : Turkish
Default                                  : No
Forced                                   : No

Text #41
ID                                       : 43
Format                                   : UTF-8
Codec ID                                 : S_TEXT/UTF8
Codec ID/Info                            : UTF-8 Plain Text
Duration                                 : 26 min 26 s
Bit rate                                 : 109 b/s
Frame rate                               : 0.277 FPS
Count of elements                        : 440
Stream size                              : 21.2 KiB (0%)
Language                                 : Ukrainian
Default                                  : No
Forced                                   : No

Text #42
ID                                       : 44
Format                                   : UTF-8
Codec ID                                 : S_TEXT/UTF8
Codec ID/Info                            : UTF-8 Plain Text
Duration                                 : 26 min 26 s
Bit rate                                 : 90 b/s
Frame rate                               : 0.277 FPS
Count of elements                        : 439
Stream size                              : 17.6 KiB (0%)
Language                                 : Vietnamese
Default                                  : No
Forced                                   : No

Text #43
ID                                       : 45
Format                                   : UTF-8
Codec ID                                 : S_TEXT/UTF8
Codec ID/Info                            : UTF-8 Plain Text
Duration                                 : 26 min 26 s
Bit rate                                 : 59 b/s
Frame rate                               : 0.277 FPS
Count of elements                        : 439
Stream size                              : 11.5 KiB (0%)
Title                                    : Traditional
Language                                 : Cantonese (Hant)
Default                                  : No
Forced                                   : No

Menu
00:00:00.000                             : en:Studio Logo
00:00:16.004                             : en:Intro
00:01:17.004                             : en:Scene 01
00:25:27.958                             : en:Credits



Download
File Container: MKV
Video/Audio Codec: H264 (HIGH) EAC3
Video Resolution: 1280x720
Please Login to post a comment.
If you don't have any account, please Register.
  • Subscribe my Feeds
  • Facebook
Encoding Queue:  x264  x265

Latest Episodes

Popular Movies and TV Shows

  • Under the Bridge
  • FBI
  • FBI: International
  • Gods of Egypt
  • Hanky Panky
  • Drive-Away Dolls
  • The Big Door Prize
  • Loot
  • FBI: Most Wanted
  • MR-9: Do or Die
  • Accidental Texan
  • Mean Girls
  • Shogun
  • Monkey Man
  • Arthur the King
  • NCIS
  • The Neighborhood
  • Downtown Owl
  • NCIS: Hawai'i
  • Bob Hearts Abishola
  • The Simpsons
  • Aftermath
  • One Life
  • Time Addicts
  • Tracker

Recent Comments

  • ReadyPlayerOne:

    THANK YOU

  • ReadyPlayerOne:

    THANK YOU

  • ReadyPlayerOne:

    THANK YOU

  • mentalityx:

    Thx dude.

  • 89M:

    NitroFlare's link is missing !!!
    Clicknupload's link is missing !!!

  • V4ND4L: May we get a ClicknUpload link for this, please. It's conspicuously missing for the team/size.
  • Bud:

    The file's half the size it should be & corrupted. Useless. Avoid.

  • mentalityx:

    Rad dude

  • mentalityx:

    Rad mate

  • waanaabe:

    I tried this file with 3 different players which all said they couldn't read the codec

  • Rosa: hi i have a question,this file size is 198mb,but on clickenupload is only 118mb is it right? what ha...
  • mike1204:

    Any reason why this episode is omitted from 'click'n'upload??

  • kellym2: I appreciate all the hard work the team does BUT there is no point in my paying for a Premium subscr...
  • Cinque_Persson: Why not skip the old news and hearsay and be constructive: what's the best alternatives for Win, Mac...
  • fallensammer:

    the file on click upload is 119mg onnly and is corrupted

Archives