Sign Up   |   Sign In  
Hannah Einbinder: Everything Must GoMILF of NorwayShrek Forever AfterWelcome to WrexhamSistasUltraman: RisingThe Bold and the BeautifulI Saw the TV GlowThe ChiBratsThe Big CigarNotas sobre un veranoWWE NXTThe BoysWalkerAssimilateMower MinionsGoodbye Uncle TomEvilBridgertonCriminal MindsIn the Line of FireLamp LifeThe Artifice GirlThe Daily Show

Announcements

05/17

2024

1

Comments

Franklin 2024 S01E08 Think of Three Things 1080p ATVP WEB-DL DDP5 1 Atmos H 264-FLUX
[RR/NF]
Size: 4.8GB mkv H264 (HIGH) / EAC3  HD  1918x872

Franklin
File Information
[img]http://lookpic.com/cdn/i2/t/0517202403445207-1.jpg[/img]
[img]http://lookpic.com/cdn/i2/t/0517202403445207-2.jpg[/img]
[img]http://lookpic.com/cdn/i2/t/0517202403445207-3.jpg[/img]

General
Unique ID                                : 180588778398975599212113169169644405293 (0x87DC2233358B9BCA45F8CD5C825E422D)
Complete name                            : Franklin 2024 S01E08 Think of Three Things 1080p ATVP WEB-DL DDP5 1 Atmos H 264-FLUX.mkv
Format                                   : Matroska
Format version                           : Version 4
File size                                : 4.80 GiB
Duration                                 : 1 h 4 min
Overall bit rate                         : 10.7 Mb/s
Frame rate                               : 23.976 FPS
Writing application                      : mkvmerge v81.0 ('Milliontown') 64-bit
Writing library                          : libebml v1.4.4 + libmatroska v1.7.1

Video
ID                                       : 1
Format                                   : AVC
Format/Info                              : Advanced Video Codec
Format profile                           : High@L4
Format settings                          : CABAC / 4 Ref Frames
Format settings, CABAC                   : Yes
Format settings, Reference frames        : 4 frames
Codec ID                                 : V_MPEG4/ISO/AVC
Duration                                 : 1 h 4 min
Bit rate                                 : 9 925 kb/s
Width                                    : 1 918 pixels
Height                                   : 872 pixels
Display aspect ratio                     : 2.2:1
Frame rate mode                          : Constant
Frame rate                               : 23.976 (24000/1001) FPS
Color space                              : YUV
Chroma subsampling                       : 4:2:0
Bit depth                                : 8 bits
Scan type                                : Progressive
Bits/(Pixel*Frame)                       : 0.248
Stream size                              : 4.45 GiB (93%)
Language                                 : English
Default                                  : Yes
Forced                                   : No
Color range                              : Limited
Color primaries                          : BT.709
Transfer characteristics                 : BT.709
Matrix coefficients                      : BT.709

Audio
ID                                       : 2
Format                                   : E-AC-3 JOC
Format/Info                              : Enhanced AC-3 with Joint Object Coding
Commercial name                          : Dolby Digital Plus with Dolby Atmos
Codec ID                                 : A_EAC3
Duration                                 : 1 h 4 min
Bit rate mode                            : Constant
Bit rate                                 : 768 kb/s
Channel(s)                               : 6 channels
Channel layout                           : L R C LFE Ls Rs
Sampling rate                            : 48.0 kHz
Frame rate                               : 31.250 FPS (1536 SPF)
Compression mode                         : Lossy
Stream size                              : 353 MiB (7%)
Language                                 : English
Service kind                             : Complete Main
Default                                  : Yes
Forced                                   : No
Complexity index                         : 16
Number of dynamic objects                : 15
Bed channel count                        : 1 channel
Bed channel configuration                : LFE

Text #1
ID                                       : 3
Format                                   : UTF-8
Codec ID                                 : S_TEXT/UTF8
Codec ID/Info                            : UTF-8 Plain Text
Duration                                 : 56 min 4 s
Bit rate                                 : 6 b/s
Frame rate                               : 0.032 FPS
Count of elements                        : 106
Stream size                              : 2.71 KiB (0%)
Title                                    : Forced
Language                                 : English
Default                                  : Yes
Forced                                   : Yes

Text #2
ID                                       : 4
Format                                   : UTF-8
Codec ID                                 : S_TEXT/UTF8
Codec ID/Info                            : UTF-8 Plain Text
Duration                                 : 58 min 55 s
Bit rate                                 : 50 b/s
Frame rate                               : 0.187 FPS
Count of elements                        : 661
Stream size                              : 21.7 KiB (0%)
Language                                 : English
Default                                  : No
Forced                                   : No

Text #3
ID                                       : 5
Format                                   : UTF-8
Codec ID                                 : S_TEXT/UTF8
Codec ID/Info                            : UTF-8 Plain Text
Duration                                 : 58 min 58 s
Bit rate                                 : 56 b/s
Frame rate                               : 0.213 FPS
Count of elements                        : 752
Stream size                              : 24.3 KiB (0%)
Title                                    : SDH
Language                                 : English
Default                                  : No
Forced                                   : No

Text #4
ID                                       : 6
Format                                   : UTF-8
Codec ID                                 : S_TEXT/UTF8
Codec ID/Info                            : UTF-8 Plain Text
Duration                                 : 58 min 58 s
Bit rate                                 : 50 b/s
Frame rate                               : 0.192 FPS
Count of elements                        : 678
Stream size                              : 21.6 KiB (0%)
Title                                    : SDH
Language                                 : English
Default                                  : No
Forced                                   : No

Text #5
ID                                       : 7
Format                                   : UTF-8
Codec ID                                 : S_TEXT/UTF8
Codec ID/Info                            : UTF-8 Plain Text
Duration                                 : 1 h 2 min
Bit rate                                 : 73 b/s
Frame rate                               : 0.182 FPS
Count of elements                        : 682
Stream size                              : 33.5 KiB (0%)
Language                                 : Arabic
Default                                  : No
Forced                                   : No

Text #6
ID                                       : 8
Format                                   : UTF-8
Codec ID                                 : S_TEXT/UTF8
Codec ID/Info                            : UTF-8 Plain Text
Duration                                 : 1 h 2 min
Bit rate                                 : 79 b/s
Frame rate                               : 0.152 FPS
Count of elements                        : 572
Stream size                              : 36.6 KiB (0%)
Language                                 : Bulgarian
Default                                  : No
Forced                                   : No

Text #7
ID                                       : 9
Format                                   : UTF-8
Codec ID                                 : S_TEXT/UTF8
Codec ID/Info                            : UTF-8 Plain Text
Duration                                 : 1 h 2 min
Bit rate                                 : 44 b/s
Frame rate                               : 0.182 FPS
Count of elements                        : 684
Stream size                              : 20.6 KiB (0%)
Title                                    : Simplified
Language                                 : Chinese (Simplified)
Default                                  : No
Forced                                   : No

Text #8
ID                                       : 10
Format                                   : UTF-8
Codec ID                                 : S_TEXT/UTF8
Codec ID/Info                            : UTF-8 Plain Text
Duration                                 : 1 h 2 min
Bit rate                                 : 43 b/s
Frame rate                               : 0.182 FPS
Count of elements                        : 685
Stream size                              : 20.0 KiB (0%)
Title                                    : Traditional
Language                                 : Chinese (Traditional)
Default                                  : No
Forced                                   : No

Text #9
ID                                       : 11
Format                                   : UTF-8
Codec ID                                 : S_TEXT/UTF8
Codec ID/Info                            : UTF-8 Plain Text
Duration                                 : 1 h 2 min
Bit rate                                 : 49 b/s
Frame rate                               : 0.176 FPS
Count of elements                        : 661
Stream size                              : 22.7 KiB (0%)
Language                                 : Czech
Default                                  : No
Forced                                   : No

Text #10
ID                                       : 12
Format                                   : UTF-8
Codec ID                                 : S_TEXT/UTF8
Codec ID/Info                            : UTF-8 Plain Text
Duration                                 : 1 h 2 min
Bit rate                                 : 51 b/s
Frame rate                               : 0.159 FPS
Count of elements                        : 598
Stream size                              : 23.5 KiB (0%)
Language                                 : Danish
Default                                  : No
Forced                                   : No

Text #11
ID                                       : 13
Format                                   : UTF-8
Codec ID                                 : S_TEXT/UTF8
Codec ID/Info                            : UTF-8 Plain Text
Duration                                 : 1 h 2 min
Bit rate                                 : 52 b/s
Frame rate                               : 0.174 FPS
Count of elements                        : 653
Stream size                              : 24.1 KiB (0%)
Language                                 : German
Default                                  : No
Forced                                   : No

Text #12
ID                                       : 14
Format                                   : UTF-8
Codec ID                                 : S_TEXT/UTF8
Codec ID/Info                            : UTF-8 Plain Text
Duration                                 : 1 h 2 min
Bit rate                                 : 90 b/s
Frame rate                               : 0.178 FPS
Count of elements                        : 669
Stream size                              : 41.4 KiB (0%)
Language                                 : Greek
Default                                  : No
Forced                                   : No

Text #13
ID                                       : 15
Format                                   : UTF-8
Codec ID                                 : S_TEXT/UTF8
Codec ID/Info                            : UTF-8 Plain Text
Duration                                 : 1 h 2 min
Bit rate                                 : 48 b/s
Frame rate                               : 0.180 FPS
Count of elements                        : 675
Stream size                              : 22.0 KiB (0%)
Title                                    : Latin American
Language                                 : Spanish (Latin America)
Default                                  : No
Forced                                   : No

Text #14
ID                                       : 16
Format                                   : UTF-8
Codec ID                                 : S_TEXT/UTF8
Codec ID/Info                            : UTF-8 Plain Text
Duration                                 : 1 h 2 min
Bit rate                                 : 48 b/s
Frame rate                               : 0.172 FPS
Count of elements                        : 647
Stream size                              : 22.1 KiB (0%)
Language                                 : Spanish (ES)
Default                                  : No
Forced                                   : No

Text #15
ID                                       : 17
Format                                   : UTF-8
Codec ID                                 : S_TEXT/UTF8
Codec ID/Info                            : UTF-8 Plain Text
Duration                                 : 1 h 2 min
Bit rate                                 : 48 b/s
Frame rate                               : 0.181 FPS
Count of elements                        : 679
Stream size                              : 22.3 KiB (0%)
Language                                 : Estonian
Default                                  : No
Forced                                   : No

Text #16
ID                                       : 18
Format                                   : UTF-8
Codec ID                                 : S_TEXT/UTF8
Codec ID/Info                            : UTF-8 Plain Text
Duration                                 : 1 h 2 min
Bit rate                                 : 48 b/s
Frame rate                               : 0.181 FPS
Count of elements                        : 680
Stream size                              : 22.3 KiB (0%)
Language                                 : Finnish
Default                                  : No
Forced                                   : No

Text #17
ID                                       : 19
Format                                   : UTF-8
Codec ID                                 : S_TEXT/UTF8
Codec ID/Info                            : UTF-8 Plain Text
Duration                                 : 1 h 0 min
Bit rate                                 : 53 b/s
Frame rate                               : 0.209 FPS
Count of elements                        : 763
Stream size                              : 24.0 KiB (0%)
Title                                    : Canadian
Language                                 : French (CA)
Default                                  : No
Forced                                   : No

Text #18
ID                                       : 20
Format                                   : UTF-8
Codec ID                                 : S_TEXT/UTF8
Codec ID/Info                            : UTF-8 Plain Text
Duration                                 : 1 h 0 min
Bit rate                                 : 53 b/s
Frame rate                               : 0.209 FPS
Count of elements                        : 763
Stream size                              : 24.0 KiB (0%)
Language                                 : French (FR)
Default                                  : No
Forced                                   : No

Text #19
ID                                       : 21
Format                                   : UTF-8
Codec ID                                 : S_TEXT/UTF8
Codec ID/Info                            : UTF-8 Plain Text
Duration                                 : 1 h 2 min
Bit rate                                 : 70 b/s
Frame rate                               : 0.182 FPS
Count of elements                        : 683
Stream size                              : 32.3 KiB (0%)
Language                                 : Hebrew
Default                                  : No
Forced                                   : No

Text #20
ID                                       : 22
Format                                   : UTF-8
Codec ID                                 : S_TEXT/UTF8
Codec ID/Info                            : UTF-8 Plain Text
Duration                                 : 1 h 2 min
Bit rate                                 : 138 b/s
Frame rate                               : 0.183 FPS
Count of elements                        : 686
Stream size                              : 63.3 KiB (0%)
Language                                 : Hindi
Default                                  : No
Forced                                   : No

Text #21
ID                                       : 23
Format                                   : UTF-8
Codec ID                                 : S_TEXT/UTF8
Codec ID/Info                            : UTF-8 Plain Text
Duration                                 : 1 h 2 min
Bit rate                                 : 52 b/s
Frame rate                               : 0.181 FPS
Count of elements                        : 679
Stream size                              : 24.2 KiB (0%)
Language                                 : Hungarian
Default                                  : No
Forced                                   : No

Text #22
ID                                       : 24
Format                                   : UTF-8
Codec ID                                 : S_TEXT/UTF8
Codec ID/Info                            : UTF-8 Plain Text
Duration                                 : 1 h 2 min
Bit rate                                 : 52 b/s
Frame rate                               : 0.181 FPS
Count of elements                        : 681
Stream size                              : 24.0 KiB (0%)
Language                                 : Indonesian
Default                                  : No
Forced                                   : No

Text #23
ID                                       : 25
Format                                   : UTF-8
Codec ID                                 : S_TEXT/UTF8
Codec ID/Info                            : UTF-8 Plain Text
Duration                                 : 1 h 2 min
Bit rate                                 : 49 b/s
Frame rate                               : 0.181 FPS
Count of elements                        : 680
Stream size                              : 22.9 KiB (0%)
Language                                 : Italian
Default                                  : No
Forced                                   : No

Text #24
ID                                       : 26
Format                                   : UTF-8
Codec ID                                 : S_TEXT/UTF8
Codec ID/Info                            : UTF-8 Plain Text
Duration                                 : 1 h 2 min
Bit rate                                 : 46 b/s
Frame rate                               : 0.190 FPS
Count of elements                        : 713
Stream size                              : 21.5 KiB (0%)
Language                                 : Japanese
Default                                  : No
Forced                                   : No

Text #25
ID                                       : 27
Format                                   : UTF-8
Codec ID                                 : S_TEXT/UTF8
Codec ID/Info                            : UTF-8 Plain Text
Duration                                 : 1 h 2 min
Bit rate                                 : 53 b/s
Frame rate                               : 0.182 FPS
Count of elements                        : 685
Stream size                              : 24.5 KiB (0%)
Language                                 : Korean
Default                                  : No
Forced                                   : No

Text #26
ID                                       : 28
Format                                   : UTF-8
Codec ID                                 : S_TEXT/UTF8
Codec ID/Info                            : UTF-8 Plain Text
Duration                                 : 1 h 2 min
Bit rate                                 : 50 b/s
Frame rate                               : 0.182 FPS
Count of elements                        : 684
Stream size                              : 23.2 KiB (0%)
Language                                 : Lithuanian
Default                                  : No
Forced                                   : No

Text #27
ID                                       : 29
Format                                   : UTF-8
Codec ID                                 : S_TEXT/UTF8
Codec ID/Info                            : UTF-8 Plain Text
Duration                                 : 1 h 2 min
Bit rate                                 : 52 b/s
Frame rate                               : 0.181 FPS
Count of elements                        : 679
Stream size                              : 24.0 KiB (0%)
Language                                 : Latvian
Default                                  : No
Forced                                   : No

Text #28
ID                                       : 30
Format                                   : UTF-8
Codec ID                                 : S_TEXT/UTF8
Codec ID/Info                            : UTF-8 Plain Text
Duration                                 : 1 h 2 min
Bit rate                                 : 48 b/s
Frame rate                               : 0.182 FPS
Count of elements                        : 682
Stream size                              : 22.0 KiB (0%)
Language                                 : Malay
Default                                  : No
Forced                                   : No

Text #29
ID                                       : 31
Format                                   : UTF-8
Codec ID                                 : S_TEXT/UTF8
Codec ID/Info                            : UTF-8 Plain Text
Duration                                 : 1 h 2 min
Bit rate                                 : 49 b/s
Frame rate                               : 0.167 FPS
Count of elements                        : 628
Stream size                              : 22.5 KiB (0%)
Language                                 : Dutch
Default                                  : No
Forced                                   : No

Text #30
ID                                       : 32
Format                                   : UTF-8
Codec ID                                 : S_TEXT/UTF8
Codec ID/Info                            : UTF-8 Plain Text
Duration                                 : 1 h 2 min
Bit rate                                 : 47 b/s
Frame rate                               : 0.161 FPS
Count of elements                        : 605
Stream size                              : 21.7 KiB (0%)
Language                                 : Norwegian
Default                                  : No
Forced                                   : No

Text #31
ID                                       : 33
Format                                   : UTF-8
Codec ID                                 : S_TEXT/UTF8
Codec ID/Info                            : UTF-8 Plain Text
Duration                                 : 1 h 2 min
Bit rate                                 : 52 b/s
Frame rate                               : 0.181 FPS
Count of elements                        : 679
Stream size                              : 23.8 KiB (0%)
Language                                 : Polish
Default                                  : No
Forced                                   : No

Text #32
ID                                       : 34
Format                                   : UTF-8
Codec ID                                 : S_TEXT/UTF8
Codec ID/Info                            : UTF-8 Plain Text
Duration                                 : 1 h 2 min
Bit rate                                 : 50 b/s
Frame rate                               : 0.181 FPS
Count of elements                        : 680
Stream size                              : 23.3 KiB (0%)
Language                                 : Portuguese
Default                                  : No
Forced                                   : No

Text #33
ID                                       : 35
Format                                   : UTF-8
Codec ID                                 : S_TEXT/UTF8
Codec ID/Info                            : UTF-8 Plain Text
Duration                                 : 1 h 2 min
Bit rate                                 : 48 b/s
Frame rate                               : 0.177 FPS
Count of elements                        : 664
Stream size                              : 22.4 KiB (0%)
Title                                    : Brazilian
Language                                 : Portuguese (BR)
Default                                  : No
Forced                                   : No

Text #34
ID                                       : 36
Format                                   : UTF-8
Codec ID                                 : S_TEXT/UTF8
Codec ID/Info                            : UTF-8 Plain Text
Duration                                 : 1 h 2 min
Bit rate                                 : 80 b/s
Frame rate                               : 0.179 FPS
Count of elements                        : 672
Stream size                              : 36.9 KiB (0%)
Language                                 : Russian
Default                                  : No
Forced                                   : No

Text #35
ID                                       : 37
Format                                   : UTF-8
Codec ID                                 : S_TEXT/UTF8
Codec ID/Info                            : UTF-8 Plain Text
Duration                                 : 1 h 2 min
Bit rate                                 : 47 b/s
Frame rate                               : 0.181 FPS
Count of elements                        : 681
Stream size                              : 21.6 KiB (0%)
Language                                 : Slovak
Default                                  : No
Forced                                   : No

Text #36
ID                                       : 38
Format                                   : UTF-8
Codec ID                                 : S_TEXT/UTF8
Codec ID/Info                            : UTF-8 Plain Text
Duration                                 : 1 h 2 min
Bit rate                                 : 43 b/s
Frame rate                               : 0.166 FPS
Count of elements                        : 622
Stream size                              : 19.7 KiB (0%)
Language                                 : Slovenian
Default                                  : No
Forced                                   : No

Text #37
ID                                       : 39
Format                                   : UTF-8
Codec ID                                 : S_TEXT/UTF8
Codec ID/Info                            : UTF-8 Plain Text
Duration                                 : 1 h 2 min
Bit rate                                 : 52 b/s
Frame rate                               : 0.181 FPS
Count of elements                        : 678
Stream size                              : 24.1 KiB (0%)
Language                                 : Swedish
Default                                  : No
Forced                                   : No

Text #38
ID                                       : 40
Format                                   : UTF-8
Codec ID                                 : S_TEXT/UTF8
Codec ID/Info                            : UTF-8 Plain Text
Duration                                 : 1 h 2 min
Bit rate                                 : 180 b/s
Frame rate                               : 0.182 FPS
Count of elements                        : 685
Stream size                              : 82.8 KiB (0%)
Language                                 : Tamil
Default                                  : No
Forced                                   : No

Text #39
ID                                       : 41
Format                                   : UTF-8
Codec ID                                 : S_TEXT/UTF8
Codec ID/Info                            : UTF-8 Plain Text
Duration                                 : 1 h 2 min
Bit rate                                 : 153 b/s
Frame rate                               : 0.182 FPS
Count of elements                        : 685
Stream size                              : 70.1 KiB (0%)
Language                                 : Telugu
Default                                  : No
Forced                                   : No

Text #40
ID                                       : 42
Format                                   : UTF-8
Codec ID                                 : S_TEXT/UTF8
Codec ID/Info                            : UTF-8 Plain Text
Duration                                 : 1 h 2 min
Bit rate                                 : 129 b/s
Frame rate                               : 0.182 FPS
Count of elements                        : 685
Stream size                              : 59.4 KiB (0%)
Language                                 : Thai
Default                                  : No
Forced                                   : No

Text #41
ID                                       : 43
Format                                   : UTF-8
Codec ID                                 : S_TEXT/UTF8
Codec ID/Info                            : UTF-8 Plain Text
Duration                                 : 1 h 2 min
Bit rate                                 : 49 b/s
Frame rate                               : 0.153 FPS
Count of elements                        : 574
Stream size                              : 22.6 KiB (0%)
Language                                 : Turkish
Default                                  : No
Forced                                   : No

Text #42
ID                                       : 44
Format                                   : UTF-8
Codec ID                                 : S_TEXT/UTF8
Codec ID/Info                            : UTF-8 Plain Text
Duration                                 : 1 h 2 min
Bit rate                                 : 82 b/s
Frame rate                               : 0.182 FPS
Count of elements                        : 685
Stream size                              : 37.8 KiB (0%)
Language                                 : Ukrainian
Default                                  : No
Forced                                   : No

Text #43
ID                                       : 45
Format                                   : UTF-8
Codec ID                                 : S_TEXT/UTF8
Codec ID/Info                            : UTF-8 Plain Text
Duration                                 : 1 h 2 min
Bit rate                                 : 64 b/s
Frame rate                               : 0.182 FPS
Count of elements                        : 684
Stream size                              : 29.6 KiB (0%)
Language                                 : Vietnamese
Default                                  : No
Forced                                   : No

Text #44
ID                                       : 46
Format                                   : UTF-8
Codec ID                                 : S_TEXT/UTF8
Codec ID/Info                            : UTF-8 Plain Text
Duration                                 : 1 h 2 min
Bit rate                                 : 40 b/s
Frame rate                               : 0.182 FPS
Count of elements                        : 685
Stream size                              : 18.7 KiB (0%)
Title                                    : Traditional
Language                                 : Cantonese (Hant)
Default                                  : No
Forced                                   : No

Menu
00:00:00.000                             : en:Studio Logo
00:00:08.843                             : en:Recap
00:00:55.265                             : en:Scene 01
00:02:29.056                             : en:Intro
00:03:38.640                             : en:Scene 02
01:02:05.000                             : en:Credits



Download
File Container: MKV
Video/Audio Codec: H264 (HIGH) EAC3
Video Resolution: 1918x872

1 Response to "[RR/NF] Franklin 2024 S01E08 Think of Three Things 1080p ATVP WEB-DL DDP5 1 Atmos H 264-FLUX (4.8GB)"
05/17/24
04:13:35
ReadyPlayerOne

Thank you!

Please Login to post a comment.
If you don't have any account, please Register.
  • Subscribe my Feeds
  • Facebook
Encoding Queue:  x264  x265

Latest Episodes

Popular Movies and TV Shows

  • Hannah Einbinder: Everything Must Go
  • MILF of Norway
  • Shrek Forever After
  • Welcome to Wrexham
  • Sistas
  • Ultraman: Rising
  • The Bold and the Beautiful
  • I Saw the TV Glow
  • The Chi
  • Brats
  • The Big Cigar
  • Notas sobre un verano
  • WWE NXT
  • The Boys
  • Walker
  • Assimilate
  • Mower Minions
  • Goodbye Uncle Tom
  • Evil
  • Bridgerton
  • Criminal Minds
  • In the Line of Fire
  • Lamp Life
  • The Artifice Girl
  • The Daily Show

Recent Comments

Archives