Sign Up   |   Sign In  
Beacon 23The NevermetsAt the End of the NightWWE King and Queen of the RingKilling CrabsGaga Chromatica BallRebusThe Young OffendersWWE Smackdown!AtlasThe Beach BoysKnox Goes AwayCivil WarThe RookieSouth ParkDoctor Who5lbs of PressureFuriosa: A Mad Max SagaWWE NXTStar Trek: DiscoverySurvivorThe Fall GuySouth Park: The End of ObesityHalf Baked: Totally HighThe Daily Show

Announcements

04/12

2024

No

Comments

Ghosts 2021 S03E07 The Polterguest 1080p AMZN WEB-DL DDP5 1 H 264-FLUX
[RR/NF/CU]
Size: 1.5GB mkv H264 (HIGH) / EAC3  HD  1920x1080

Ghosts
File Information
[img]http://lookpic.com/cdn/i2/t/0412202406551957-1.jpg[/img]
[img]http://lookpic.com/cdn/i2/t/0412202406551957-2.jpg[/img]
[img]http://lookpic.com/cdn/i2/t/0412202406551957-3.jpg[/img]

General
Unique ID                                : 95848389161146541164704880772598897141 (0x481BBA709A2A2CA1903E2669A9F299F5)
Complete name                            : Ghosts 2021 S03E07 The Polterguest 1080p AMZN WEB-DL DDP5 1 H 264-FLUX.mkv
Format                                   : Matroska
Format version                           : Version 4
File size                                : 1.49 GiB
Duration                                 : 21 min 14 s
Overall bit rate                         : 10.0 Mb/s
Frame rate                               : 23.976 FPS
Writing application                      : mkvmerge v83.0 ('Circle Of Friends') 64-bit
Writing library                          : libebml v1.4.5 + libmatroska v1.7.1

Video
ID                                       : 1
Format                                   : AVC
Format/Info                              : Advanced Video Codec
Format profile                           : High@L4
Format settings                          : CABAC / 4 Ref Frames
Format settings, CABAC                   : Yes
Format settings, Reference frames        : 4 frames
Codec ID                                 : V_MPEG4/ISO/AVC
Duration                                 : 21 min 14 s
Bit rate mode                            : Constant
Bit rate                                 : 9 374 kb/s
Nominal bit rate                         : 10 000 kb/s
Width                                    : 1 920 pixels
Height                                   : 1 080 pixels
Display aspect ratio                     : 16:9
Frame rate mode                          : Constant
Frame rate                               : 23.976 (24000/1001) FPS
Color space                              : YUV
Chroma subsampling                       : 4:2:0
Bit depth                                : 8 bits
Scan type                                : Progressive
Bits/(Pixel*Frame)                       : 0.189
Stream size                              : 1.39 GiB (94%)
Language                                 : English (US)
Default                                  : Yes
Forced                                   : No
Color range                              : Limited
Color primaries                          : BT.709
Transfer characteristics                 : BT.709
Matrix coefficients                      : BT.709

Audio
ID                                       : 2
Format                                   : E-AC-3
Format/Info                              : Enhanced AC-3
Commercial name                          : Dolby Digital Plus
Codec ID                                 : A_EAC3
Duration                                 : 21 min 14 s
Bit rate mode                            : Constant
Bit rate                                 : 640 kb/s
Channel(s)                               : 6 channels
Channel layout                           : L R C LFE Ls Rs
Sampling rate                            : 48.0 kHz
Frame rate                               : 31.250 FPS (1536 SPF)
Compression mode                         : Lossy
Stream size                              : 97.2 MiB (6%)
Language                                 : English
Service kind                             : Complete Main
Default                                  : Yes
Forced                                   : No

Text #1
ID                                       : 3
Format                                   : UTF-8
Codec ID                                 : S_TEXT/UTF8
Codec ID/Info                            : UTF-8 Plain Text
Duration                                 : 20 min 35 s
Bit rate                                 : 118 b/s
Frame rate                               : 0.467 FPS
Count of elements                        : 577
Stream size                              : 17.9 KiB (0%)
Language                                 : English (US)
Default                                  : No
Forced                                   : No

Text #2
ID                                       : 4
Format                                   : UTF-8
Codec ID                                 : S_TEXT/UTF8
Codec ID/Info                            : UTF-8 Plain Text
Duration                                 : 20 min 35 s
Bit rate                                 : 124 b/s
Frame rate                               : 0.482 FPS
Count of elements                        : 596
Stream size                              : 18.7 KiB (0%)
Title                                    : SDH
Language                                 : English (US)
Default                                  : No
Forced                                   : No

Menu
00:00:00.000                             : en:Scene 1
00:21:09.000                             : en:Outro



Download
File Container: MKV
Video/Audio Codec: H264 (HIGH) EAC3
Video Resolution: 1920x1080
Please Login to post a comment.
If you don't have any account, please Register.
  • Subscribe my Feeds
  • Facebook
Encoding Queue:  x264  x265

Latest Episodes

Popular Movies and TV Shows

  • Beacon 23
  • The Nevermets
  • At the End of the Night
  • WWE King and Queen of the Ring
  • Killing Crabs
  • Gaga Chromatica Ball
  • Rebus
  • The Young Offenders
  • WWE Smackdown!
  • Atlas
  • The Beach Boys
  • Knox Goes Away
  • Civil War
  • The Rookie
  • South Park
  • Doctor Who
  • 5lbs of Pressure
  • Furiosa: A Mad Max Saga
  • WWE NXT
  • Star Trek: Discovery
  • Survivor
  • The Fall Guy
  • South Park: The End of Obesity
  • Half Baked: Totally High
  • The Daily Show

Recent Comments

  • Wrapt: Hahahaha yeah right make a liar out of me but I was referring to comments made about a movie or an e...
  • Wrapt: Comments are not always appearing in the Recent Comments list after submitting a comment any reason ...
  • waanaabe:

    warning: speaks German Swedish and French for those without English subs...

  • spiker1961:

    The audio on this is a commentary track, not the actual film audio.

  • spiker1961:

    The audio on this is a commentary track, not the film audio.

  • DuranDuran: The MS PAT show - - Does anyone have BOTH the MS PAT show (SEASON 4) & (SEASON 3) that just cam...
  • newuser:

    need english subtitles

  • Demonz:

    WTH is this

    NO season info and parts 1-13

  • meyat74:

    please add if possible new episodes 5-6

  • DuranDuran: THE MS PAT show = Does anyone have BOTH the MS PAT show (SEASON 3)-and- (SEASON 4) that just came ou...
  • big_ralphie: Just sitting down to watch and, yes there are subtitles...in ITALIAN ONLY. ENGLISH subs might be hel...
  • Geependo:

    All links are dead

  • OldMovies:

    Has Czech subtitles but not English. Need forced English for the foreign language parts.

  • PROFessorMorrynarty: Would it be possible to upload 'Lego masters Australia' Series 6 Episode 6 Please? It's the only one...

Archives