Sign Up   |   Sign In  
Ghostbusters: Frozen EmpireX-Men '97Star Wars: The Bad BatchUnder the BridgeAn American Bombing: The Road to April 19thJimmy Carr: Natural Born KillerFBIThe Cleaning LadyFBI: InternationalGodzilla x Kong: The New EmpireLa noche de los asesinosDune: Part TwoFBI: Most WantedPalm RoyaleShogunLa margeImmaculateProject DorothyNCISCurb Your EnthusiasmNCIS: Hawai'iSweet DreamsThe Deadly SwarmThe 100th: Billy Joel at Madison Square Garden - The Greatest Arena Run of All TimeFallout

Announcements

03/29

2024

No

Comments

Greys Anatomy S20E03 Walk on the Ocean 720p AMZN WEB-DL DDP5 1 H 264-NTb
[RR/NF/CU]
Size: 1.5GB mkv H264 (HIGH) / EAC3  HD  1280x720

Grey's Anatomy
File Information
[img]http://lookpic.com/cdn/i2/t/0329202415493099-1.jpg[/img]
[img]http://lookpic.com/cdn/i2/t/0329202415493099-2.jpg[/img]
[img]http://lookpic.com/cdn/i2/t/0329202415493099-3.jpg[/img]

General
Unique ID                                : 331023832077434341232476098060820663212 (0xF908DEFD2846B5BF5E5E8A1DE937CBAC)
Complete name                            : Greys Anatomy S20E03 Walk on the Ocean 720p AMZN WEB-DL DDP5 1 H 264-NTb.mkv
Format                                   : Matroska
Format version                           : Version 4
File size                                : 1.46 GiB
Duration                                 : 42 min 50 s
Overall bit rate                         : 4 892 kb/s
Frame rate                               : 23.976 FPS
Writing application                      : mkvmerge v81.0 ('Milliontown') 64-bit
Writing library                          : libebml v1.4.4 + libmatroska v1.7.1

Video
ID                                       : 1
Format                                   : AVC
Format/Info                              : Advanced Video Codec
Format profile                           : High@L3.1
Format settings                          : CABAC / 4 Ref Frames
Format settings, CABAC                   : Yes
Format settings, Reference frames        : 4 frames
Codec ID                                 : V_MPEG4/ISO/AVC
Duration                                 : 42 min 50 s
Bit rate mode                            : Constant
Bit rate                                 : 4 250 kb/s
Nominal bit rate                         : 6 000 kb/s
Width                                    : 1 280 pixels
Height                                   : 720 pixels
Display aspect ratio                     : 16:9
Frame rate mode                          : Constant
Frame rate                               : 23.976 (24000/1001) FPS
Color space                              : YUV
Chroma subsampling                       : 4:2:0
Bit depth                                : 8 bits
Scan type                                : Progressive
Bits/(Pixel*Frame)                       : 0.192
Stream size                              : 1.27 GiB (87%)
Default                                  : Yes
Forced                                   : No
Color range                              : Limited
Color primaries                          : BT.709
Transfer characteristics                 : BT.709
Matrix coefficients                      : BT.709

Audio
ID                                       : 2
Format                                   : E-AC-3
Format/Info                              : Enhanced AC-3
Commercial name                          : Dolby Digital Plus
Codec ID                                 : A_EAC3
Duration                                 : 42 min 50 s
Bit rate mode                            : Constant
Bit rate                                 : 640 kb/s
Channel(s)                               : 6 channels
Channel layout                           : L R C LFE Ls Rs
Sampling rate                            : 48.0 kHz
Frame rate                               : 31.250 FPS (1536 SPF)
Compression mode                         : Lossy
Stream size                              : 196 MiB (13%)
Language                                 : English (US)
Service kind                             : Complete Main
Default                                  : Yes
Forced                                   : No

Text #1
ID                                       : 3
Format                                   : UTF-8
Codec ID                                 : S_TEXT/UTF8
Codec ID/Info                            : UTF-8 Plain Text
Duration                                 : 42 min 2 s
Bit rate                                 : 110 b/s
Frame rate                               : 0.343 FPS
Count of elements                        : 865
Stream size                              : 34.1 KiB (0%)
Language                                 : English (US)
Default                                  : No
Forced                                   : No

Text #2
ID                                       : 4
Format                                   : UTF-8
Codec ID                                 : S_TEXT/UTF8
Codec ID/Info                            : UTF-8 Plain Text
Duration                                 : 42 min 2 s
Bit rate                                 : 121 b/s
Frame rate                               : 0.363 FPS
Count of elements                        : 916
Stream size                              : 37.3 KiB (0%)
Title                                    : SDH
Language                                 : English (US)
Default                                  : No
Forced                                   : No



Download
File Container: MKV
Video/Audio Codec: H264 (HIGH) EAC3
Video Resolution: 1280x720
Please Login to post a comment.
If you don't have any account, please Register.
  • Subscribe my Feeds
  • Facebook
Encoding Queue:  x264  x265

Latest Episodes

Popular Movies and TV Shows

  • Ghostbusters: Frozen Empire
  • X-Men '97
  • Star Wars: The Bad Batch
  • Under the Bridge
  • An American Bombing: The Road to April 19th
  • Jimmy Carr: Natural Born Killer
  • FBI
  • The Cleaning Lady
  • FBI: International
  • Godzilla x Kong: The New Empire
  • La noche de los asesinos
  • Dune: Part Two
  • FBI: Most Wanted
  • Palm Royale
  • Shogun
  • La marge
  • Immaculate
  • Project Dorothy
  • NCIS
  • Curb Your Enthusiasm
  • NCIS: Hawai'i
  • Sweet Dreams
  • The Deadly Swarm
  • The 100th: Billy Joel at Madison Square Garden - The Greatest Arena Run of All Time
  • Fallout

Recent Comments

  • ubirattan:

    Mandem um Fikper, por favor.

  • kellym2: No answer yet for my query - why all the episodes "server under maintenance" on some episo...
  • Majnon:

    Rapidrar links are dead :(

  • Rake:

    Loads of "Server is under maintenance" with RR theese days...

  • kellym2: Why am I getting "Server is in maintenance mode" on some episodes of a series and not on o...
  • Bud:

    Are you ever going to put up Thursday's episode with Liev Schreiber?

  • alp-engin:

    When will that maintenance be over? Please...

  • mentalityx:

    Rad bloke

  • DownloadHostInspector:

    so far these RMTeam uploads always have a working link. DownloadHostInspector approved!

  • DownloadHostInspector:

    ah yes, this upload has a host that works. clicknupload. DownloadHostInspector approved!

  • DownloadHostInspector: Why are all the download hosts trash? none of them let you download it

Archives