Sign Up   |   Sign In  
Furiosa: A Mad Max SagaThe EqualizerLove Lies BleedingThe Brokenwood MysteriesCivil WarLing yi zhong lanThe SympathizerBack to BlackMasterChef AustraliaThe ListenerWhen Calls the HeartCry of a ProstituteBeacon 23Sullivan's CrossingThe Jinx: The Life and Deaths of Robert DurstDamagedDead WrongSongs of EarthAbbott ElementaryThe RookieStar Trek: DiscoveryAtlasGaga Chromatica BallBob Marley: One LoveThe Daily Show

Announcements

04/22

2024

1

Comments

Grimsburg S01E10 The Big Trouble with Lil Betsy 1080p HULU WEB-DL DD 5 1 H 264-playWEB
[RR/NF/CU]
Size: 393MB mkv H264 (HIGH) / EAC3  HD  1920x1080

Grimsburg
File Information
[img]http://lookpic.com/cdn/i2/t/0422202411301184-1.jpg[/img]
[img]http://lookpic.com/cdn/i2/t/0422202411301184-2.jpg[/img]
[img]http://lookpic.com/cdn/i2/t/0422202411301184-3.jpg[/img]

General
Unique ID                                : 230610312616922689907226301139174850511 (0xAD7DEE3F6DB75132D7C869D43AB47FCF)
Complete name                            : Grimsburg S01E10 The Big Trouble with Lil Betsy 1080p HULU WEB-DL DD 5 1 H 264-playWEB.mkv
Format                                   : Matroska
Format version                           : Version 4
File size                                : 394 MiB
Duration                                 : 21 min 39 s
Overall bit rate                         : 2 542 kb/s
Frame rate                               : 23.976 FPS
Writing application                      : mkvmerge v83.0 ('Circle Of Friends') 64-bit
Writing library                          : libebml v1.4.5 + libmatroska v1.7.1

Video
ID                                       : 1
Format                                   : AVC
Format/Info                              : Advanced Video Codec
Format profile                           : High@L4
Format settings                          : CABAC / 4 Ref Frames
Format settings, CABAC                   : Yes
Format settings, Reference frames        : 4 frames
Codec ID                                 : V_MPEG4/ISO/AVC
Duration                                 : 21 min 39 s
Bit rate                                 : 2 284 kb/s
Width                                    : 1 920 pixels
Height                                   : 1 080 pixels
Display aspect ratio                     : 16:9
Frame rate mode                          : Constant
Frame rate                               : 23.976 (24000/1001) FPS
Color space                              : YUV
Chroma subsampling                       : 4:2:0
Bit depth                                : 8 bits
Scan type                                : Progressive
Bits/(Pixel*Frame)                       : 0.046
Stream size                              : 354 MiB (90%)
Default                                  : Yes
Forced                                   : No

Audio
ID                                       : 2
Format                                   : E-AC-3
Format/Info                              : Enhanced AC-3
Commercial name                          : Dolby Digital Plus
Codec ID                                 : A_EAC3
Duration                                 : 21 min 39 s
Bit rate mode                            : Constant
Bit rate                                 : 256 kb/s
Channel(s)                               : 6 channels
Channel layout                           : L R C LFE Ls Rs
Sampling rate                            : 48.0 kHz
Frame rate                               : 31.250 FPS (1536 SPF)
Compression mode                         : Lossy
Stream size                              : 39.7 MiB (10%)
Language                                 : English
Service kind                             : Complete Main
Default                                  : Yes
Forced                                   : No

Text #1
ID                                       : 3
Format                                   : UTF-8
Codec ID                                 : S_TEXT/UTF8
Codec ID/Info                            : UTF-8 Plain Text
Duration                                 : 21 min 35 s
Bit rate                                 : 112 b/s
Frame rate                               : 0.435 FPS
Count of elements                        : 564
Stream size                              : 17.8 KiB (0%)
Language                                 : English
Default                                  : No
Forced                                   : No

Text #2
ID                                       : 4
Format                                   : UTF-8
Codec ID                                 : S_TEXT/UTF8
Codec ID/Info                            : UTF-8 Plain Text
Duration                                 : 21 min 35 s
Bit rate                                 : 120 b/s
Frame rate                               : 0.470 FPS
Count of elements                        : 609
Stream size                              : 19.0 KiB (0%)
Title                                    : SDH
Language                                 : English
Default                                  : No
Forced                                   : No



Download
File Container: MKV
Video/Audio Codec: H264 (HIGH) EAC3
Video Resolution: 1920x1080

1 Response to "[RR/NF/CU] Grimsburg S01E10 The Big Trouble with Lil Betsy 1080p HULU WEB-DL DD 5 1 H 264-playWEB (393MB)"
04/22/24
12:13:05
ReadyPlayerOne

Thank You

Please Login to post a comment.
If you don't have any account, please Register.
  • Subscribe my Feeds
  • Facebook
Encoding Queue:  x264  x265

Latest Episodes

Popular Movies and TV Shows

  • Furiosa: A Mad Max Saga
  • The Equalizer
  • Love Lies Bleeding
  • The Brokenwood Mysteries
  • Civil War
  • Ling yi zhong lan
  • The Sympathizer
  • Back to Black
  • MasterChef Australia
  • The Listener
  • When Calls the Heart
  • Cry of a Prostitute
  • Beacon 23
  • Sullivan's Crossing
  • The Jinx: The Life and Deaths of Robert Durst
  • Damaged
  • Dead Wrong
  • Songs of Earth
  • Abbott Elementary
  • The Rookie
  • Star Trek: Discovery
  • Atlas
  • Gaga Chromatica Ball
  • Bob Marley: One Love
  • The Daily Show

Recent Comments

  • dilliboy: Will we ever see these RMTeam releases ever again? I hope they're not lost to the digital graveyard ...
  • kang:

    NitroFlare's link is missing...

  • kang:

    NitroFlare's link is missing...

  • Rafi85: Hi thx for the 14th season. Is it possible to reupload some episodes plz they were removed. These ar...
  • KubrickFan:

    Any possibility of a fresh link for this?

  • GubeShitemon: This is a different movie to the artwork version. Not the Dylan McDermott film but the Ben Affleck f...
  • Wrapt: Hahahaha yeah right make a liar out of me but I was referring to comments made about a movie or an e...
  • Wrapt: Comments are not always appearing in the Recent Comments list after submitting a comment any reason ...
  • waanaabe:

    warning: speaks German Swedish and French for those without English subs...

  • spiker1961:

    The audio on this is a commentary track, not the actual film audio.

  • spiker1961:

    The audio on this is a commentary track, not the film audio.

  • DuranDuran: The MS PAT show - - Does anyone have BOTH the MS PAT show (SEASON 4) & (SEASON 3) that just cam...
  • newuser:

    need english subtitles

  • Demonz:

    WTH is this

    NO season info and parts 1-13

  • meyat74:

    please add if possible new episodes 5-6

  • DuranDuran: THE MS PAT show = Does anyone have BOTH the MS PAT show (SEASON 3)-and- (SEASON 4) that just came ou...
  • big_ralphie: Just sitting down to watch and, yes there are subtitles...in ITALIAN ONLY. ENGLISH subs might be hel...

Archives