Sign Up   |   Sign In  
S.W.A.T.Rebel Moon - Part Two: The ScargiverReal Time with Bill MaherUnreported WorldIf I StayThe Breaking IceThe Spiderwick ChroniclesBeyond ParadiseWhite BirdThe Bold and the BeautifulLate Night with the DevilAsphalt CitySugarYoung SheldonStar Trek: DiscoveryBlood for DustProblemistaArticle 370A Gentleman in MoscowElsbethGhostsGhostbusters: Frozen EmpireThe Three Musketeers - Part II: MiladyRiver WildThe Good Doctor

Announcements

03/31

2024

1

Comments

Halt and Catch Fire S02E06 1080p AMZN WEB-DL DDP 5 1 H 264-NTb
[RR/NF]
Size: 3.9GB mkv H264 (HIGH) / EAC3  HD  1920x1080

Halt and Catch Fire
File Information
[img]http://lookpic.com/cdn/i2/t/0331202408510043-1.jpg[/img]
[img]http://lookpic.com/cdn/i2/t/0331202408510043-2.jpg[/img]
[img]http://lookpic.com/cdn/i2/t/0331202408510043-3.jpg[/img]

General
Unique ID                                : 188584644798823251422435979290790975769 (0x8DE014D9B561C2F997C303A6E1BDD919)
Complete name                            : Halt and Catch Fire S02E06 1080p AMZN WEB-DL DDP 5 1 H 264-NTb.mkv
Format                                   : Matroska
Format version                           : Version 4
File size                                : 3.88 GiB
Duration                                 : 43 min 0 s
Overall bit rate mode                    : Variable
Overall bit rate                         : 12.9 Mb/s
Frame rate                               : 23.976 FPS
Encoded date                             : 2016-08-16 01:56:21 UTC
Writing application                      : mkvmerge v9.3.1 ('Mask Machine') 64bit
Writing library                          : libebml v1.3.4 + libmatroska v1.4.5

Video
ID                                       : 1
Format                                   : AVC
Format/Info                              : Advanced Video Codec
Format profile                           : High@L4
Format settings                          : CABAC / 4 Ref Frames
Format settings, CABAC                   : Yes
Format settings, Reference frames        : 4 frames
Codec ID                                 : V_MPEG4/ISO/AVC
Duration                                 : 43 min 0 s
Bit rate mode                            : Variable
Bit rate                                 : 12.0 Mb/s
Maximum bit rate                         : 15.0 Mb/s
Width                                    : 1 920 pixels
Height                                   : 1 080 pixels
Display aspect ratio                     : 16:9
Active Format Description                : Full frame 16:9 image
Frame rate mode                          : Constant
Frame rate                               : 23.976 (24000/1001) FPS
Color space                              : YUV
Chroma subsampling                       : 4:2:0
Bit depth                                : 8 bits
Scan type                                : Progressive
Bits/(Pixel*Frame)                       : 0.242
Stream size                              : 3.61 GiB (93%)
Writing library                          : x264 core 148 r2623 d5b2374
 Encoding settings                        : cabac=1 / ref=4 / deblock=1:-1:-1 / analyse=0x3:0x133 / me=umh / subme=9 / psy=1 / psy_rd=1.00:0.15 / mixed_ref=1 / me_range=24 / chroma_me=1 / trellis=2 / 8x8dct=1 / cqm=0 / deadz / fast pskip=1 / chroma_qp_offset=-3 / threads=34 / lookahead_threads=5 / sliced_threads=0 / nr=150 / decimate=1 / interlaced=0 / bluray_compat=0 / c / bframes=8 / b_pyramid=2 / b_adapt=2 / b_bias=0 / direct=3 / weightb=1 / open_gop=0 / weightp=2 / keyint=120 / keyint_min=61 / scenecut=0 / intra_refresh=0 / rc_lookahead=120 / rc=crf / mbtree=1 / crf=18.0 / qcomp=0.60 / qpmin=0 / qpmax=69 / qpstep=4 / vbv_maxrate=15000 / vbv_bufsize=31250 / crf_max=0.0 / nal_hrd=vbr / filler=0 / ip_ratio=1.40 / aq=3:1.00
Default                                  : Yes
Forced                                   : No
Color range                              : Limited
Color primaries                          : BT.709
Transfer characteristics                 : BT.709
Matrix coefficients                      : BT.709

Audio
ID                                       : 2
Format                                   : E-AC-3
Format/Info                              : Enhanced AC-3
Commercial name                          : Dolby Digital Plus
Codec ID                                 : A_EAC3
Duration                                 : 43 min 0 s
Bit rate mode                            : Constant
Bit rate                                 : 640 kb/s
Channel(s)                               : 6 channels
Channel layout                           : L R C LFE Ls Rs
Sampling rate                            : 48.0 kHz
Frame rate                               : 31.250 FPS (1536 SPF)
Compression mode                         : Lossy
Stream size                              : 197 MiB (5%)
Language                                 : English
Service kind                             : Complete Main
Default                                  : Yes
Forced                                   : No

Text
ID                                       : 3
Format                                   : UTF-8
Codec ID                                 : S_TEXT/UTF8
Codec ID/Info                            : UTF-8 Plain Text
Language                                 : English
Default                                  : No
Forced                                   : No



Download
File Container: MKV
Video/Audio Codec: H264 (HIGH) EAC3
Video Resolution: 1920x1080

1 Response to "[RR/NF] Halt and Catch Fire S02E06 1080p AMZN WEB-DL DDP 5 1 H 264-NTb (3.9GB)"
03/31/24
11:12:57
ReadyPlayerOne

Thank you!

Please Login to post a comment.
If you don't have any account, please Register.
  • Subscribe my Feeds
  • Facebook
Encoding Queue:  x264  x265

Latest Episodes

Popular Movies and TV Shows

  • S.W.A.T.
  • Rebel Moon - Part Two: The Scargiver
  • Real Time with Bill Maher
  • Unreported World
  • If I Stay
  • The Breaking Ice
  • The Spiderwick Chronicles
  • Beyond Paradise
  • White Bird
  • The Bold and the Beautiful
  • Late Night with the Devil
  • Asphalt City
  • Sugar
  • Young Sheldon
  • Star Trek: Discovery
  • Blood for Dust
  • Problemista
  • Article 370
  • A Gentleman in Moscow
  • Elsbeth
  • Ghosts
  • Ghostbusters: Frozen Empire
  • The Three Musketeers - Part II: Milady
  • River Wild
  • The Good Doctor

Recent Comments

  • waanaabe: Could you Kindly Upload the SOUTH PARK seasons to CU as well? Would be really appreciated
  • gusmac67:

    Clickupload link is corrupt. File bad at 38 min

  • timt:

    Narrated Movie!

  • Richardexamp: I recently stumbled upon https://asiancasinos.org/ and I obligated to symbolize, it has with dispatc...
  • 23d1:

    ClicknUpload link is missing

  • yopo:

    NitroFlare's link is missing !!!

  • yopo:

    NitroFlare's link is missing !!!

  • yopo:

    NitroFlare's link is missing !!!
    Clicknupload's link is missing !!!

  • yopo:

    NitroFlare's link is missing !!!

  • dragonnightfire: I have tried contacting Rapid Rar to find out what is going on with the server maintainance. I am no...
  • dragonnightfire:

    RR links dead on 5 eps

  • Draveren: hi. can we solve this "server under maintenance" stuff, already? if back in the day i'd ke...
  • Majnon: The links are dead. Please re-upload
  • timt:

    Anyone have the movie "Shoot" (1976) to post?

  • Nightshade: Hey, it appears at least the RMTeam separate episodes and ION's packs for the first two seasons of t...
  • Bigfishguy:

    There's no free option to download this video. Can someone please upload it to clicknupload?

  • timt:

    Junk

  • timt:

    CAM Audio

  • timt:

    Hard Coded SUMS! Russian, I Think.

  • ubirattan:

    Mandem um Fikper, por favor.

Archives