Sign Up   |   Sign In  
Star Wars: The Bad BatchX-Men '97FBI: InternationalArthur the KingThe Good DinosaurFBIFBI: Most WantedThe Big Door PrizeGods of EgyptMR-9: Do or DieDrive-Away DollsShogunMonkey ManNCISLootAccidental TexanMy MercuryNCIS: Hawai'iThe NeighborhoodBob Hearts AbisholaDowntown OwlAftermathOne LifeTrackerThe Simpsons

Announcements

03/31

2024

1

Comments

Halt and Catch Fire S04E01 1080p AMZN WEB-DL DDP 5 1 H 264-NTb
[RR/NF]
Size: 4.4GB mkv H264 (HIGH) / EAC3  HD  1920x1080

Halt and Catch Fire
File Information
[img]http://lookpic.com/cdn/i2/t/0331202411093829-1.jpg[/img]
[img]http://lookpic.com/cdn/i2/t/0331202411093829-2.jpg[/img]
[img]http://lookpic.com/cdn/i2/t/0331202411093829-3.jpg[/img]

General
Unique ID                                : 35458273767875450859379212522865261028 (0x1AAD03DF12D82B073047BAFE6C8F79E4)
Complete name                            : Halt and Catch Fire S04E01 1080p AMZN WEB-DL DDP 5 1 H 264-NTb.mkv
Format                                   : Matroska
Format version                           : Version 4
File size                                : 4.40 GiB
Duration                                 : 44 min 17 s
Overall bit rate mode                    : Variable
Overall bit rate                         : 14.2 Mb/s
Frame rate                               : 23.976 FPS
Encoded date                             : 2017-08-21 02:13:08 UTC
Writing application                      : mkvmerge v14.0.0 ('Flow') 64bit
Writing library                          : libebml v1.3.4 + libmatroska v1.4.5

Video
ID                                       : 1
Format                                   : AVC
Format/Info                              : Advanced Video Codec
Format profile                           : High@L4
Format settings                          : CABAC / 4 Ref Frames
Format settings, CABAC                   : Yes
Format settings, Reference frames        : 4 frames
Codec ID                                 : V_MPEG4/ISO/AVC
Duration                                 : 44 min 17 s
Bit rate mode                            : Variable
Bit rate                                 : 13.6 Mb/s
Maximum bit rate                         : 15.0 Mb/s
Width                                    : 1 920 pixels
Height                                   : 1 080 pixels
Display aspect ratio                     : 16:9
Frame rate mode                          : Constant
Frame rate                               : 23.976 (24000/1001) FPS
Color space                              : YUV
Chroma subsampling                       : 4:2:0
Bit depth                                : 8 bits
Scan type                                : Progressive
Bits/(Pixel*Frame)                       : 0.273
Stream size                              : 4.20 GiB (95%)
Default                                  : Yes
Forced                                   : No
Color range                              : Limited
Color primaries                          : BT.709
Transfer characteristics                 : BT.709
Matrix coefficients                      : BT.709

Audio
ID                                       : 2
Format                                   : E-AC-3
Format/Info                              : Enhanced AC-3
Commercial name                          : Dolby Digital Plus
Codec ID                                 : A_EAC3
Duration                                 : 44 min 17 s
Bit rate mode                            : Constant
Bit rate                                 : 640 kb/s
Channel(s)                               : 6 channels
Channel layout                           : L R C LFE Ls Rs
Sampling rate                            : 48.0 kHz
Frame rate                               : 31.250 FPS (1536 SPF)
Compression mode                         : Lossy
Stream size                              : 203 MiB (5%)
Language                                 : English
Service kind                             : Complete Main
Default                                  : Yes
Forced                                   : No

Text
ID                                       : 3
Format                                   : UTF-8
Codec ID                                 : S_TEXT/UTF8
Codec ID/Info                            : UTF-8 Plain Text
Duration                                 : 44 min 8 s
Bit rate                                 : 73 b/s
Frame rate                               : 0.331 FPS
Count of elements                        : 878
Stream size                              : 23.7 KiB (0%)
Language                                 : English
Default                                  : No
Forced                                   : No



Download
File Container: MKV
Video/Audio Codec: H264 (HIGH) EAC3
Video Resolution: 1920x1080

1 Response to "[RR/NF] Halt and Catch Fire S04E01 1080p AMZN WEB-DL DDP 5 1 H 264-NTb (4.4GB)"
03/31/24
17:26:39
ReadyPlayerOne

Thank you!

Please Login to post a comment.
If you don't have any account, please Register.
  • Subscribe my Feeds
  • Facebook
Encoding Queue:  x264  x265

Latest Episodes

Popular Movies and TV Shows

  • Star Wars: The Bad Batch
  • X-Men '97
  • FBI: International
  • Arthur the King
  • The Good Dinosaur
  • FBI
  • FBI: Most Wanted
  • The Big Door Prize
  • Gods of Egypt
  • MR-9: Do or Die
  • Drive-Away Dolls
  • Shogun
  • Monkey Man
  • NCIS
  • Loot
  • Accidental Texan
  • My Mercury
  • NCIS: Hawai'i
  • The Neighborhood
  • Bob Hearts Abishola
  • Downtown Owl
  • Aftermath
  • One Life
  • Tracker
  • The Simpsons

Recent Comments

  • Oscar2:

    Sorry, NITROFLARE links are dead, should've checked them first

    RAPIDGATOR links are OK

  • ReadyPlayerOne:

    THANK YOU

  • ReadyPlayerOne:

    THANK YOU

  • ReadyPlayerOne:

    THANK YOU

  • mentalityx:

    Thx dude.

  • 89M:

    NitroFlare's link is missing !!!
    Clicknupload's link is missing !!!

  • V4ND4L: May we get a ClicknUpload link for this, please. It's conspicuously missing for the team/size.
  • Bud:

    The file's half the size it should be & corrupted. Useless. Avoid.

  • mentalityx:

    Rad dude

  • mentalityx:

    Rad mate

  • waanaabe:

    I tried this file with 3 different players which all said they couldn't read the codec

  • Rosa: hi i have a question,this file size is 198mb,but on clickenupload is only 118mb is it right? what ha...
  • mike1204:

    Any reason why this episode is omitted from 'click'n'upload??

  • kellym2: I appreciate all the hard work the team does BUT there is no point in my paying for a Premium subscr...

Archives