Sign Up   |   Sign In  
The Bold and the BeautifulThe Big CigarDead Dead Demons Dededede DestructionI Saw the TV GlowThe PrestigeNotas sobre un veranoYoung SheldonModern FamilyBridgertonGoodbye Uncle TomAssimilateBratsThe BoysWWE NXTEvilMower MinionsFentasyLamp LifeWalkerCriminal MindsThe AcolyteIn the Line of FireThe Artifice GirlCabriniThe Daily Show

Announcements

05/20

2024

No

Comments

Interview with the Vampire S01E01 In Throes of Increasing Wonder 1080p AMZN WEB-DL DDP5 1 H 264-NTb
[RR/NF]
Size: 4.1GB mkv H264 (HIGH) / EAC3  HD  1920x960

Interview with the Vampire
File Information
[img]http://lookpic.com/cdn/i2/t/0520202420053122-1.jpg[/img]
[img]http://lookpic.com/cdn/i2/t/0520202420053122-2.jpg[/img]
[img]http://lookpic.com/cdn/i2/t/0520202420053122-3.jpg[/img]

General
Unique ID                                : 275270273743201795141074252631978627015 (0xCF172055353D456CF379C3B0A6AD4FC7)
Complete name                            : Interview with the Vampire S01E01 In Throes of Increasing Wonder 1080p AMZN WEB-DL DDP5 1 H 264-NTb.mkv
Format                                   : Matroska
Format version                           : Version 4
File size                                : 4.05 GiB
Duration                                 : 1 h 6 min
Overall bit rate                         : 8 751 kb/s
Frame rate                               : 24.000 FPS
Writing application                      : mkvmerge v72.0.0 ('Minuano (Six-eight)') 64-bit
Writing library                          : libebml v1.4.4 + libmatroska v1.7.1

Video
ID                                       : 1
Format                                   : AVC
Format/Info                              : Advanced Video Codec
Format profile                           : High@L4
Format settings                          : CABAC / 4 Ref Frames
Format settings, CABAC                   : Yes
Format settings, Reference frames        : 4 frames
Codec ID                                 : V_MPEG4/ISO/AVC
Duration                                 : 1 h 6 min
Bit rate mode                            : Constant
Bit rate                                 : 8 109 kb/s
Nominal bit rate                         : 10 000 kb/s
Width                                    : 1 920 pixels
Height                                   : 960 pixels
Display aspect ratio                     : 2.000
Frame rate mode                          : Constant
Frame rate                               : 24.000 FPS
Color space                              : YUV
Chroma subsampling                       : 4:2:0
Bit depth                                : 8 bits
Scan type                                : Progressive
Bits/(Pixel*Frame)                       : 0.183
Stream size                              : 3.75 GiB (93%)
Default                                  : Yes
Forced                                   : No
Color range                              : Limited
Color primaries                          : BT.709
Transfer characteristics                 : BT.709
Matrix coefficients                      : BT.709

Audio
ID                                       : 2
Format                                   : E-AC-3
Format/Info                              : Enhanced AC-3
Commercial name                          : Dolby Digital Plus
Codec ID                                 : A_EAC3
Duration                                 : 1 h 6 min
Bit rate mode                            : Constant
Bit rate                                 : 640 kb/s
Channel(s)                               : 6 channels
Channel layout                           : L R C LFE Ls Rs
Sampling rate                            : 48.0 kHz
Frame rate                               : 31.250 FPS (1536 SPF)
Compression mode                         : Lossy
Stream size                              : 303 MiB (7%)
Language                                 : English (US)
Service kind                             : Complete Main
Default                                  : Yes
Forced                                   : No

Text #1
ID                                       : 3
Format                                   : UTF-8
Codec ID                                 : S_TEXT/UTF8
Codec ID/Info                            : UTF-8 Plain Text
Duration                                 : 1 h 4 min
Bit rate                                 : 77 b/s
Frame rate                               : 0.287 FPS
Count of elements                        : 1110
Stream size                              : 36.5 KiB (0%)
Language                                 : English (US)
Default                                  : No
Forced                                   : No

Text #2
ID                                       : 4
Format                                   : UTF-8
Codec ID                                 : S_TEXT/UTF8
Codec ID/Info                            : UTF-8 Plain Text
Duration                                 : 1 h 6 min
Bit rate                                 : 80 b/s
Frame rate                               : 0.322 FPS
Count of elements                        : 1281
Stream size                              : 39.0 KiB (0%)
Title                                    : SDH
Language                                 : English (US)
Default                                  : No
Forced                                   : No



Download
File Container: MKV
Video/Audio Codec: H264 (HIGH) EAC3
Video Resolution: 1920x960
Please Login to post a comment.
If you don't have any account, please Register.
  • Subscribe my Feeds
  • Facebook
Encoding Queue:  x264  x265

Latest Episodes

Popular Movies and TV Shows

  • The Bold and the Beautiful
  • The Big Cigar
  • Dead Dead Demons Dededede Destruction
  • I Saw the TV Glow
  • The Prestige
  • Notas sobre un verano
  • Young Sheldon
  • Modern Family
  • Bridgerton
  • Goodbye Uncle Tom
  • Assimilate
  • Brats
  • The Boys
  • WWE NXT
  • Evil
  • Mower Minions
  • Fentasy
  • Lamp Life
  • Walker
  • Criminal Minds
  • The Acolyte
  • In the Line of Fire
  • The Artifice Girl
  • Cabrini
  • The Daily Show

Recent Comments

Archives