Sign Up   |   Sign In  
The AbyssBeyond ParadiseWWE Smackdown!Man on FireCreed IIIDoom PatrolYoung SheldonLaw & Order: Organized CrimeLaw & Order Toronto: Criminal IntentThe Greatest HitsThe UntouchablesFour Souls of CoyoteFalloutDamagedSugarLaRoy, TexasA Gentleman in MoscowParachuteElsbethFranklinGhosts10 LivesUntitled Woody WoodpeckerA Model MurderStar Trek: Discovery

Announcements

03/28

2024

No

Comments

Invincible 2021 S02E07 IM NOT GOING ANYWHERE 720p AMZN WEB-DL DDP5 1 H 264-FLUX
[RR/NF/CU]
Size: 766MB mkv H264 (HIGH) / EAC3  HD  1280x720

Invincible
File Information
[img]http://lookpic.com/cdn/i2/t/0328202410520489-1.jpg[/img]
[img]http://lookpic.com/cdn/i2/t/0328202410520489-2.jpg[/img]
[img]http://lookpic.com/cdn/i2/t/0328202410520489-3.jpg[/img]

General
Unique ID                                : 116600772178688533539637345773016095695 (0x57B87DEB0BAB9BC3D4AE99E782649BCF)
Complete name                            : Invincible.2021.S02E07.IM.NOT.GOING.ANYWHERE.720p.AMZN.WEB-DL.DDP5.1.H.264-FLUX.mkv
Format                                   : Matroska
Format version                           : Version 4
File size                                : 767 MiB
Duration                                 : 51 min 43 s
Overall bit rate                         : 2 073 kb/s
Frame rate                               : 23.976 FPS
Writing application                      : mkvmerge v79.0 ('Funeral Pyres') 64-bit
Writing library                          : libebml v1.4.4 + libmatroska v1.7.1

Video
ID                                       : 1
Format                                   : AVC
Format/Info                              : Advanced Video Codec
Format profile                           : High@L3.1
Format settings                          : CABAC / 4 Ref Frames
Format settings, CABAC                   : Yes
Format settings, Reference frames        : 4 frames
Codec ID                                 : V_MPEG4/ISO/AVC
Duration                                 : 51 min 43 s
Bit rate mode                            : Constant
Bit rate                                 : 1 425 kb/s
Nominal bit rate                         : 4 000 kb/s
Width                                    : 1 280 pixels
Height                                   : 720 pixels
Display aspect ratio                     : 16:9
Frame rate mode                          : Constant
Frame rate                               : 23.976 (24000/1001) FPS
Color space                              : YUV
Chroma subsampling                       : 4:2:0
Bit depth                                : 8 bits
Scan type                                : Progressive
Bits/(Pixel*Frame)                       : 0.064
Stream size                              : 527 MiB (69%)
Language                                 : English (US)
Default                                  : Yes
Forced                                   : No
Color range                              : Limited
Color primaries                          : BT.709
Transfer characteristics                 : BT.709
Matrix coefficients                      : BT.709

Audio
ID                                       : 2
Format                                   : E-AC-3
Format/Info                              : Enhanced AC-3
Commercial name                          : Dolby Digital Plus
Codec ID                                 : A_EAC3
Duration                                 : 51 min 43 s
Bit rate mode                            : Constant
Bit rate                                 : 640 kb/s
Channel(s)                               : 6 channels
Channel layout                           : L R C LFE Ls Rs
Sampling rate                            : 48.0 kHz
Frame rate                               : 31.250 FPS (1536 SPF)
Compression mode                         : Lossy
Stream size                              : 237 MiB (31%)
Language                                 : English (US)
Service kind                             : Complete Main
Default                                  : Yes
Forced                                   : No

Text #1
ID                                       : 3
Format                                   : UTF-8
Codec ID                                 : S_TEXT/UTF8
Codec ID/Info                            : UTF-8 Plain Text
Duration                                 : 46 min 58 s
Bit rate                                 : 73 b/s
Frame rate                               : 0.290 FPS
Count of elements                        : 818
Stream size                              : 25.4 KiB (0%)
Language                                 : English (US)
Default                                  : No
Forced                                   : No

Text #2
ID                                       : 4
Format                                   : UTF-8
Codec ID                                 : S_TEXT/UTF8
Codec ID/Info                            : UTF-8 Plain Text
Duration                                 : 47 min 45 s
Bit rate                                 : 81 b/s
Frame rate                               : 0.331 FPS
Count of elements                        : 948
Stream size                              : 28.4 KiB (0%)
Title                                    : SDH
Language                                 : English (US)
Default                                  : No
Forced                                   : No

Text #3
ID                                       : 5
Format                                   : UTF-8
Codec ID                                 : S_TEXT/UTF8
Codec ID/Info                            : UTF-8 Plain Text
Duration                                 : 48 min 8 s
Bit rate                                 : 105 b/s
Frame rate                               : 0.253 FPS
Count of elements                        : 732
Stream size                              : 37.1 KiB (0%)
Language                                 : Arabic (001)
Default                                  : No
Forced                                   : No

Text #4
ID                                       : 6
Format                                   : UTF-8
Codec ID                                 : S_TEXT/UTF8
Codec ID/Info                            : UTF-8 Plain Text
Duration                                 : 48 min 8 s
Bit rate                                 : 61 b/s
Frame rate                               : 0.250 FPS
Count of elements                        : 722
Stream size                              : 21.8 KiB (0%)
Title                                    : European
Language                                 : Catalan (ES)
Default                                  : No
Forced                                   : No

Text #5
ID                                       : 7
Format                                   : UTF-8
Codec ID                                 : S_TEXT/UTF8
Codec ID/Info                            : UTF-8 Plain Text
Duration                                 : 48 min 8 s
Bit rate                                 : 60 b/s
Frame rate                               : 0.253 FPS
Count of elements                        : 731
Stream size                              : 21.3 KiB (0%)
Language                                 : Czech (CZ)
Default                                  : No
Forced                                   : No

Text #6
ID                                       : 8
Format                                   : UTF-8
Codec ID                                 : S_TEXT/UTF8
Codec ID/Info                            : UTF-8 Plain Text
Duration                                 : 48 min 8 s
Bit rate                                 : 61 b/s
Frame rate                               : 0.252 FPS
Count of elements                        : 729
Stream size                              : 21.7 KiB (0%)
Language                                 : Danish (DK)
Default                                  : No
Forced                                   : No

Text #7
ID                                       : 9
Format                                   : UTF-8
Codec ID                                 : S_TEXT/UTF8
Codec ID/Info                            : UTF-8 Plain Text
Duration                                 : 48 min 8 s
Bit rate                                 : 68 b/s
Frame rate                               : 0.252 FPS
Count of elements                        : 728
Stream size                              : 24.1 KiB (0%)
Language                                 : German (DE)
Default                                  : No
Forced                                   : No

Text #8
ID                                       : 10
Format                                   : UTF-8
Codec ID                                 : S_TEXT/UTF8
Codec ID/Info                            : UTF-8 Plain Text
Duration                                 : 48 min 8 s
Bit rate                                 : 122 b/s
Frame rate                               : 0.253 FPS
Count of elements                        : 732
Stream size                              : 43.3 KiB (0%)
Language                                 : Greek (GR)
Default                                  : No
Forced                                   : No

Text #9
ID                                       : 11
Format                                   : UTF-8
Codec ID                                 : S_TEXT/UTF8
Codec ID/Info                            : UTF-8 Plain Text
Duration                                 : 48 min 8 s
Bit rate                                 : 63 b/s
Frame rate                               : 0.252 FPS
Count of elements                        : 729
Stream size                              : 22.5 KiB (0%)
Title                                    : Latin American
Language                                 : Spanish (Latin America)
Default                                  : No
Forced                                   : No

Text #10
ID                                       : 12
Format                                   : UTF-8
Codec ID                                 : S_TEXT/UTF8
Codec ID/Info                            : UTF-8 Plain Text
Duration                                 : 48 min 8 s
Bit rate                                 : 60 b/s
Frame rate                               : 0.253 FPS
Count of elements                        : 731
Stream size                              : 21.2 KiB (0%)
Title                                    : European
Language                                 : Basque (ES)
Default                                  : No
Forced                                   : No

Text #11
ID                                       : 13
Format                                   : UTF-8
Codec ID                                 : S_TEXT/UTF8
Codec ID/Info                            : UTF-8 Plain Text
Duration                                 : 48 min 8 s
Bit rate                                 : 61 b/s
Frame rate                               : 0.253 FPS
Count of elements                        : 730
Stream size                              : 21.8 KiB (0%)
Language                                 : Finnish (FI)
Default                                  : No
Forced                                   : No

Text #12
ID                                       : 14
Format                                   : UTF-8
Codec ID                                 : S_TEXT/UTF8
Codec ID/Info                            : UTF-8 Plain Text
Duration                                 : 48 min 8 s
Bit rate                                 : 63 b/s
Frame rate                               : 0.251 FPS
Count of elements                        : 726
Stream size                              : 22.3 KiB (0%)
Language                                 : Filipino (PH)
Default                                  : No
Forced                                   : No

Text #13
ID                                       : 15
Format                                   : UTF-8
Codec ID                                 : S_TEXT/UTF8
Codec ID/Info                            : UTF-8 Plain Text
Duration                                 : 48 min 8 s
Bit rate                                 : 70 b/s
Frame rate                               : 0.252 FPS
Count of elements                        : 729
Stream size                              : 24.9 KiB (0%)
Title                                    : Canadian
Language                                 : French (CA)
Default                                  : No
Forced                                   : No

Text #14
ID                                       : 16
Format                                   : UTF-8
Codec ID                                 : S_TEXT/UTF8
Codec ID/Info                            : UTF-8 Plain Text
Duration                                 : 48 min 8 s
Bit rate                                 : 58 b/s
Frame rate                               : 0.253 FPS
Count of elements                        : 731
Stream size                              : 20.6 KiB (0%)
Title                                    : European
Language                                 : Galician (ES)
Default                                  : No
Forced                                   : No

Text #15
ID                                       : 17
Format                                   : UTF-8
Codec ID                                 : S_TEXT/UTF8
Codec ID/Info                            : UTF-8 Plain Text
Duration                                 : 48 min 8 s
Bit rate                                 : 104 b/s
Frame rate                               : 0.253 FPS
Count of elements                        : 731
Stream size                              : 36.7 KiB (0%)
Language                                 : Hebrew (IL)
Default                                  : No
Forced                                   : No

Text #16
ID                                       : 18
Format                                   : UTF-8
Codec ID                                 : S_TEXT/UTF8
Codec ID/Info                            : UTF-8 Plain Text
Duration                                 : 48 min 8 s
Bit rate                                 : 168 b/s
Frame rate                               : 0.253 FPS
Count of elements                        : 732
Stream size                              : 59.3 KiB (0%)
Language                                 : Hindi (IN)
Default                                  : No
Forced                                   : No

Text #17
ID                                       : 19
Format                                   : UTF-8
Codec ID                                 : S_TEXT/UTF8
Codec ID/Info                            : UTF-8 Plain Text
Duration                                 : 48 min 8 s
Bit rate                                 : 67 b/s
Frame rate                               : 0.253 FPS
Count of elements                        : 730
Stream size                              : 23.7 KiB (0%)
Language                                 : Hungarian (HU)
Default                                  : No
Forced                                   : No

Text #18
ID                                       : 20
Format                                   : UTF-8
Codec ID                                 : S_TEXT/UTF8
Codec ID/Info                            : UTF-8 Plain Text
Duration                                 : 48 min 8 s
Bit rate                                 : 63 b/s
Frame rate                               : 0.252 FPS
Count of elements                        : 729
Stream size                              : 22.2 KiB (0%)
Language                                 : Indonesian (ID)
Default                                  : No
Forced                                   : No

Text #19
ID                                       : 21
Format                                   : UTF-8
Codec ID                                 : S_TEXT/UTF8
Codec ID/Info                            : UTF-8 Plain Text
Duration                                 : 48 min 8 s
Bit rate                                 : 62 b/s
Frame rate                               : 0.252 FPS
Count of elements                        : 729
Stream size                              : 22.1 KiB (0%)
Language                                 : Italian (IT)
Default                                  : No
Forced                                   : No

Text #20
ID                                       : 22
Format                                   : UTF-8
Codec ID                                 : S_TEXT/UTF8
Codec ID/Info                            : UTF-8 Plain Text
Duration                                 : 48 min 8 s
Bit rate                                 : 58 b/s
Frame rate                               : 0.211 FPS
Count of elements                        : 610
Stream size                              : 20.6 KiB (0%)
Language                                 : Japanese (JP)
Default                                  : No
Forced                                   : No

Text #21
ID                                       : 23
Format                                   : UTF-8
Codec ID                                 : S_TEXT/UTF8
Codec ID/Info                            : UTF-8 Plain Text
Duration                                 : 48 min 8 s
Bit rate                                 : 162 b/s
Frame rate                               : 0.253 FPS
Count of elements                        : 732
Stream size                              : 57.3 KiB (0%)
Language                                 : Kannada (IN)
Default                                  : No
Forced                                   : No

Text #22
ID                                       : 24
Format                                   : UTF-8
Codec ID                                 : S_TEXT/UTF8
Codec ID/Info                            : UTF-8 Plain Text
Duration                                 : 48 min 8 s
Bit rate                                 : 66 b/s
Frame rate                               : 0.253 FPS
Count of elements                        : 732
Stream size                              : 23.5 KiB (0%)
Language                                 : Korean (KR)
Default                                  : No
Forced                                   : No

Text #23
ID                                       : 25
Format                                   : UTF-8
Codec ID                                 : S_TEXT/UTF8
Codec ID/Info                            : UTF-8 Plain Text
Duration                                 : 48 min 8 s
Bit rate                                 : 208 b/s
Frame rate                               : 0.253 FPS
Count of elements                        : 731
Stream size                              : 73.4 KiB (0%)
Language                                 : Malayalam (IN)
Default                                  : No
Forced                                   : No

Text #24
ID                                       : 26
Format                                   : UTF-8
Codec ID                                 : S_TEXT/UTF8
Codec ID/Info                            : UTF-8 Plain Text
Duration                                 : 48 min 8 s
Bit rate                                 : 69 b/s
Frame rate                               : 0.252 FPS
Count of elements                        : 729
Stream size                              : 24.5 KiB (0%)
Language                                 : Malay (MY)
Default                                  : No
Forced                                   : No

Text #25
ID                                       : 27
Format                                   : UTF-8
Codec ID                                 : S_TEXT/UTF8
Codec ID/Info                            : UTF-8 Plain Text
Duration                                 : 48 min 8 s
Bit rate                                 : 63 b/s
Frame rate                               : 0.252 FPS
Count of elements                        : 729
Stream size                              : 22.5 KiB (0%)
Language                                 : Norwegian Bokmal (NO)
Default                                  : No
Forced                                   : No

Text #26
ID                                       : 28
Format                                   : UTF-8
Codec ID                                 : S_TEXT/UTF8
Codec ID/Info                            : UTF-8 Plain Text
Duration                                 : 48 min 8 s
Bit rate                                 : 56 b/s
Frame rate                               : 0.251 FPS
Count of elements                        : 724
Stream size                              : 20.0 KiB (0%)
Language                                 : Dutch (NL)
Default                                  : No
Forced                                   : No

Text #27
ID                                       : 29
Format                                   : UTF-8
Codec ID                                 : S_TEXT/UTF8
Codec ID/Info                            : UTF-8 Plain Text
Duration                                 : 48 min 8 s
Bit rate                                 : 62 b/s
Frame rate                               : 0.252 FPS
Count of elements                        : 729
Stream size                              : 22.1 KiB (0%)
Language                                 : Polish (PL)
Default                                  : No
Forced                                   : No

Text #28
ID                                       : 30
Format                                   : UTF-8
Codec ID                                 : S_TEXT/UTF8
Codec ID/Info                            : UTF-8 Plain Text
Duration                                 : 48 min 8 s
Bit rate                                 : 66 b/s
Frame rate                               : 0.253 FPS
Count of elements                        : 731
Stream size                              : 23.4 KiB (0%)
Title                                    : Brazilian
Language                                 : Portuguese (BR)
Default                                  : No
Forced                                   : No

Text #29
ID                                       : 31
Format                                   : UTF-8
Codec ID                                 : S_TEXT/UTF8
Codec ID/Info                            : UTF-8 Plain Text
Duration                                 : 48 min 8 s
Bit rate                                 : 71 b/s
Frame rate                               : 0.253 FPS
Count of elements                        : 731
Stream size                              : 25.3 KiB (0%)
Language                                 : Romanian (RO)
Default                                  : No
Forced                                   : No

Text #30
ID                                       : 32
Format                                   : UTF-8
Codec ID                                 : S_TEXT/UTF8
Codec ID/Info                            : UTF-8 Plain Text
Duration                                 : 48 min 8 s
Bit rate                                 : 107 b/s
Frame rate                               : 0.253 FPS
Count of elements                        : 732
Stream size                              : 37.8 KiB (0%)
Language                                 : Russian (RU)
Default                                  : No
Forced                                   : No

Text #31
ID                                       : 33
Format                                   : UTF-8
Codec ID                                 : S_TEXT/UTF8
Codec ID/Info                            : UTF-8 Plain Text
Duration                                 : 48 min 8 s
Bit rate                                 : 59 b/s
Frame rate                               : 0.252 FPS
Count of elements                        : 728
Stream size                              : 20.9 KiB (0%)
Language                                 : Swedish (SE)
Default                                  : No
Forced                                   : No

Text #32
ID                                       : 34
Format                                   : UTF-8
Codec ID                                 : S_TEXT/UTF8
Codec ID/Info                            : UTF-8 Plain Text
Duration                                 : 48 min 8 s
Bit rate                                 : 172 b/s
Frame rate                               : 0.253 FPS
Count of elements                        : 732
Stream size                              : 60.7 KiB (0%)
Language                                 : Tamil (IN)
Default                                  : No
Forced                                   : No

Text #33
ID                                       : 35
Format                                   : UTF-8
Codec ID                                 : S_TEXT/UTF8
Codec ID/Info                            : UTF-8 Plain Text
Duration                                 : 48 min 8 s
Bit rate                                 : 171 b/s
Frame rate                               : 0.253 FPS
Count of elements                        : 732
Stream size                              : 60.3 KiB (0%)
Language                                 : Telugu (IN)
Default                                  : No
Forced                                   : No

Text #34
ID                                       : 36
Format                                   : UTF-8
Codec ID                                 : S_TEXT/UTF8
Codec ID/Info                            : UTF-8 Plain Text
Duration                                 : 48 min 8 s
Bit rate                                 : 166 b/s
Frame rate                               : 0.253 FPS
Count of elements                        : 732
Stream size                              : 58.8 KiB (0%)
Language                                 : Thai (TH)
Default                                  : No
Forced                                   : No

Text #35
ID                                       : 37
Format                                   : UTF-8
Codec ID                                 : S_TEXT/UTF8
Codec ID/Info                            : UTF-8 Plain Text
Duration                                 : 48 min 8 s
Bit rate                                 : 65 b/s
Frame rate                               : 0.252 FPS
Count of elements                        : 729
Stream size                              : 23.1 KiB (0%)
Language                                 : Turkish (TR)
Default                                  : No
Forced                                   : No

Text #36
ID                                       : 38
Format                                   : UTF-8
Codec ID                                 : S_TEXT/UTF8
Codec ID/Info                            : UTF-8 Plain Text
Duration                                 : 48 min 8 s
Bit rate                                 : 106 b/s
Frame rate                               : 0.253 FPS
Count of elements                        : 732
Stream size                              : 37.5 KiB (0%)
Title                                    : Ukraine
Language                                 : Ukrainian (UA)
Default                                  : No
Forced                                   : No

Text #37
ID                                       : 39
Format                                   : UTF-8
Codec ID                                 : S_TEXT/UTF8
Codec ID/Info                            : UTF-8 Plain Text
Duration                                 : 48 min 8 s
Bit rate                                 : 82 b/s
Frame rate                               : 0.253 FPS
Count of elements                        : 730
Stream size                              : 29.1 KiB (0%)
Title                                    : Vietnam
Language                                 : Vietnamese (VN)
Default                                  : No
Forced                                   : No

Text #38
ID                                       : 40
Format                                   : UTF-8
Codec ID                                 : S_TEXT/UTF8
Codec ID/Info                            : UTF-8 Plain Text
Duration                                 : 48 min 8 s
Bit rate                                 : 64 b/s
Frame rate                               : 0.253 FPS
Count of elements                        : 732
Stream size                              : 22.6 KiB (0%)
Title                                    : Simplified
Language                                 : Chinese (Simplified)
Default                                  : No
Forced                                   : No

Text #39
ID                                       : 41
Format                                   : UTF-8
Codec ID                                 : S_TEXT/UTF8
Codec ID/Info                            : UTF-8 Plain Text
Duration                                 : 48 min 8 s
Bit rate                                 : 57 b/s
Frame rate                               : 0.253 FPS
Count of elements                        : 732
Stream size                              : 20.2 KiB (0%)
Title                                    : Traditional
Language                                 : Chinese (Traditional)
Default                                  : No
Forced                                   : No

Menu
00:00:00.000                             : en:Studio Logo
00:00:06.000                             : en:Previously On
00:00:52.000                             : en:Scene 1
00:01:33.000                             : en:Title Sequence
00:01:39.000                             : en:Scene 2
00:05:08.000                             : en:Scene 3
00:10:14.000                             : en:Scene 4
00:13:13.000                             : en:Scene 5
00:14:12.000                             : en:Scene 6
00:14:19.000                             : en:Scene 7
00:15:46.000                             : en:Scene 8
00:17:19.000                             : en:Scene 9
00:17:56.000                             : en:Scene 10
00:19:09.000                             : en:Scene 11
00:19:38.000                             : en:Scene 12
00:23:37.000                             : en:Scene 13
00:26:24.000                             : en:Scene 14
00:31:00.000                             : en:Scene 15
00:33:45.000                             : en:Scene 16
00:35:41.000                             : en:Scene 17
00:40:06.000                             : en:Scene 18
00:40:59.000                             : en:Scene 19
00:41:36.000                             : en:Scene 20
00:44:44.000                             : en:Scene 21
00:45:13.000                             : en:End Credits
00:45:21.000                             : en:Scene 22
00:45:54.000                             : en:Scene 23
00:47:21.000                             : en:End Credits



Download
File Container: MKV
Video/Audio Codec: H264 (HIGH) EAC3
Video Resolution: 1280x720
Please Login to post a comment.
If you don't have any account, please Register.
  • Subscribe my Feeds
  • Facebook
Encoding Queue:  x264  x265

Latest Episodes

Popular Movies and TV Shows

  • The Abyss
  • Beyond Paradise
  • WWE Smackdown!
  • Man on Fire
  • Creed III
  • Doom Patrol
  • Young Sheldon
  • Law & Order: Organized Crime
  • Law & Order Toronto: Criminal Intent
  • The Greatest Hits
  • The Untouchables
  • Four Souls of Coyote
  • Fallout
  • Damaged
  • Sugar
  • LaRoy, Texas
  • A Gentleman in Moscow
  • Parachute
  • Elsbeth
  • Franklin
  • Ghosts
  • 10 Lives
  • Untitled Woody Woodpecker
  • A Model Murder
  • Star Trek: Discovery

Recent Comments

  • theahtisham:

    Kindly upload Ep. 3 and 4 as well.

  • Kudzu: Update on sound issue, File's codec info says stereo but is only a the left channel If I switch i...
  • Admin:

    kang
    Getting error while encoding, sorry

  • rambaldi70:

    sorry this release ok.
    but descripton is bad
    (Duration: 2h56m7s)

  • mentalityx:

    Thx bloke.

  • Cinemoan: I've been getting the same error message as budo here - There's no rhyme or reason to when it pops u...

Archives