Sign Up   |   Sign In  
X-Men '97Ghostbusters: Frozen EmpireStar Wars: The Bad BatchUnder the BridgeAn American Bombing: The Road to April 19thLa noche de los asesinosFBIThe Cleaning LadyFBI: InternationalGodzilla x Kong: The New EmpireDune: Part TwoThe Truth vs. Alex JonesFBI: Most WantedPalm RoyaleShogunLa margeImmaculateJimmy Carr: Natural Born KillerNCISCurb Your EnthusiasmNCIS: Hawai'iSweet DreamsProject DorothyThe 100th: Billy Joel at Madison Square Garden - The Greatest Arena Run of All TimeFallout

Announcements

03/28

2024

No

Comments

Invincible 2021 S02E07 IM NOT GOING ANYWHERE 720p AMZN WEB-DL DDP5 1 H 264-NTb
[RR/NF/CU]
Size: 767MB mkv H264 (HIGH) / EAC3  HD  1280x720

Invincible
File Information
[img]http://lookpic.com/cdn/i2/t/0328202413491846-1.jpg[/img]
[img]http://lookpic.com/cdn/i2/t/0328202413491846-2.jpg[/img]
[img]http://lookpic.com/cdn/i2/t/0328202413491846-3.jpg[/img]

General
Unique ID                                : 220934187234852163025530155506801496923 (0xA636606EFB4E51DEE066DB089F42D35B)
Complete name                            : Invincible 2021 S02E07 IM NOT GOING ANYWHERE 720p AMZN WEB-DL DDP5 1 H 264-NTb.mkv
Format                                   : Matroska
Format version                           : Version 4
File size                                : 767 MiB
Duration                                 : 51 min 43 s
Overall bit rate                         : 2 073 kb/s
Frame rate                               : 23.976 FPS
Writing application                      : mkvmerge v81.0 ('Milliontown') 64-bit
Writing library                          : libebml v1.4.4 + libmatroska v1.7.1

Video
ID                                       : 1
Format                                   : AVC
Format/Info                              : Advanced Video Codec
Format profile                           : High@L3.1
Format settings                          : CABAC / 4 Ref Frames
Format settings, CABAC                   : Yes
Format settings, Reference frames        : 4 frames
Codec ID                                 : V_MPEG4/ISO/AVC
Duration                                 : 51 min 43 s
Bit rate mode                            : Constant
Bit rate                                 : 1 425 kb/s
Nominal bit rate                         : 4 000 kb/s
Width                                    : 1 280 pixels
Height                                   : 720 pixels
Display aspect ratio                     : 16:9
Frame rate mode                          : Constant
Frame rate                               : 23.976 (24000/1001) FPS
Color space                              : YUV
Chroma subsampling                       : 4:2:0
Bit depth                                : 8 bits
Scan type                                : Progressive
Bits/(Pixel*Frame)                       : 0.064
Stream size                              : 527 MiB (69%)
Default                                  : Yes
Forced                                   : No
Color range                              : Limited
Color primaries                          : BT.709
Transfer characteristics                 : BT.709
Matrix coefficients                      : BT.709

Audio
ID                                       : 2
Format                                   : E-AC-3
Format/Info                              : Enhanced AC-3
Commercial name                          : Dolby Digital Plus
Codec ID                                 : A_EAC3
Duration                                 : 51 min 43 s
Bit rate mode                            : Constant
Bit rate                                 : 640 kb/s
Channel(s)                               : 6 channels
Channel layout                           : L R C LFE Ls Rs
Sampling rate                            : 48.0 kHz
Frame rate                               : 31.250 FPS (1536 SPF)
Compression mode                         : Lossy
Stream size                              : 237 MiB (31%)
Language                                 : English (US)
Service kind                             : Complete Main
Default                                  : Yes
Forced                                   : No

Text #1
ID                                       : 3
Format                                   : UTF-8
Codec ID                                 : S_TEXT/UTF8
Codec ID/Info                            : UTF-8 Plain Text
Duration                                 : 46 min 58 s
Bit rate                                 : 73 b/s
Frame rate                               : 0.290 FPS
Count of elements                        : 818
Stream size                              : 25.4 KiB (0%)
Language                                 : English (US)
Default                                  : No
Forced                                   : No

Text #2
ID                                       : 4
Format                                   : UTF-8
Codec ID                                 : S_TEXT/UTF8
Codec ID/Info                            : UTF-8 Plain Text
Duration                                 : 47 min 45 s
Bit rate                                 : 81 b/s
Frame rate                               : 0.331 FPS
Count of elements                        : 948
Stream size                              : 28.4 KiB (0%)
Title                                    : SDH
Language                                 : English (US)
Default                                  : No
Forced                                   : No

Text #3
ID                                       : 5
Format                                   : UTF-8
Codec ID                                 : S_TEXT/UTF8
Codec ID/Info                            : UTF-8 Plain Text
Duration                                 : 48 min 8 s
Bit rate                                 : 105 b/s
Frame rate                               : 0.253 FPS
Count of elements                        : 732
Stream size                              : 37.1 KiB (0%)
Language                                 : Arabic (001)
Default                                  : No
Forced                                   : No

Text #4
ID                                       : 6
Format                                   : UTF-8
Codec ID                                 : S_TEXT/UTF8
Codec ID/Info                            : UTF-8 Plain Text
Duration                                 : 48 min 8 s
Bit rate                                 : 61 b/s
Frame rate                               : 0.250 FPS
Count of elements                        : 722
Stream size                              : 21.8 KiB (0%)
Language                                 : Catalan (ES)
Default                                  : No
Forced                                   : No

Text #5
ID                                       : 7
Format                                   : UTF-8
Codec ID                                 : S_TEXT/UTF8
Codec ID/Info                            : UTF-8 Plain Text
Duration                                 : 48 min 8 s
Bit rate                                 : 60 b/s
Frame rate                               : 0.253 FPS
Count of elements                        : 731
Stream size                              : 21.3 KiB (0%)
Language                                 : Czech (CZ)
Default                                  : No
Forced                                   : No

Text #6
ID                                       : 8
Format                                   : UTF-8
Codec ID                                 : S_TEXT/UTF8
Codec ID/Info                            : UTF-8 Plain Text
Duration                                 : 48 min 8 s
Bit rate                                 : 61 b/s
Frame rate                               : 0.252 FPS
Count of elements                        : 729
Stream size                              : 21.7 KiB (0%)
Language                                 : Danish (DK)
Default                                  : No
Forced                                   : No

Text #7
ID                                       : 9
Format                                   : UTF-8
Codec ID                                 : S_TEXT/UTF8
Codec ID/Info                            : UTF-8 Plain Text
Duration                                 : 48 min 8 s
Bit rate                                 : 68 b/s
Frame rate                               : 0.252 FPS
Count of elements                        : 728
Stream size                              : 24.1 KiB (0%)
Language                                 : German (DE)
Default                                  : No
Forced                                   : No

Text #8
ID                                       : 10
Format                                   : UTF-8
Codec ID                                 : S_TEXT/UTF8
Codec ID/Info                            : UTF-8 Plain Text
Duration                                 : 48 min 8 s
Bit rate                                 : 122 b/s
Frame rate                               : 0.253 FPS
Count of elements                        : 732
Stream size                              : 43.3 KiB (0%)
Language                                 : Greek (GR)
Default                                  : No
Forced                                   : No

Text #9
ID                                       : 11
Format                                   : UTF-8
Codec ID                                 : S_TEXT/UTF8
Codec ID/Info                            : UTF-8 Plain Text
Duration                                 : 48 min 8 s
Bit rate                                 : 63 b/s
Frame rate                               : 0.252 FPS
Count of elements                        : 729
Stream size                              : 22.5 KiB (0%)
Title                                    : Spanish (Latin America)
Language                                 : Spanish (Latin America)
Default                                  : No
Forced                                   : No

Text #10
ID                                       : 12
Format                                   : UTF-8
Codec ID                                 : S_TEXT/UTF8
Codec ID/Info                            : UTF-8 Plain Text
Duration                                 : 48 min 8 s
Bit rate                                 : 64 b/s
Frame rate                               : 0.253 FPS
Count of elements                        : 731
Stream size                              : 22.6 KiB (0%)
Title                                    : Spanish (Spain)
Language                                 : Spanish (ES)
Default                                  : No
Forced                                   : No

Text #11
ID                                       : 13
Format                                   : UTF-8
Codec ID                                 : S_TEXT/UTF8
Codec ID/Info                            : UTF-8 Plain Text
Duration                                 : 48 min 8 s
Bit rate                                 : 60 b/s
Frame rate                               : 0.253 FPS
Count of elements                        : 731
Stream size                              : 21.2 KiB (0%)
Language                                 : Basque (ES)
Default                                  : No
Forced                                   : No

Text #12
ID                                       : 14
Format                                   : UTF-8
Codec ID                                 : S_TEXT/UTF8
Codec ID/Info                            : UTF-8 Plain Text
Duration                                 : 48 min 8 s
Bit rate                                 : 61 b/s
Frame rate                               : 0.253 FPS
Count of elements                        : 730
Stream size                              : 21.8 KiB (0%)
Language                                 : Finnish (FI)
Default                                  : No
Forced                                   : No

Text #13
ID                                       : 15
Format                                   : UTF-8
Codec ID                                 : S_TEXT/UTF8
Codec ID/Info                            : UTF-8 Plain Text
Duration                                 : 48 min 8 s
Bit rate                                 : 63 b/s
Frame rate                               : 0.251 FPS
Count of elements                        : 726
Stream size                              : 22.3 KiB (0%)
Language                                 : Filipino (PH)
Default                                  : No
Forced                                   : No

Text #14
ID                                       : 16
Format                                   : UTF-8
Codec ID                                 : S_TEXT/UTF8
Codec ID/Info                            : UTF-8 Plain Text
Duration                                 : 48 min 8 s
Bit rate                                 : 70 b/s
Frame rate                               : 0.252 FPS
Count of elements                        : 729
Stream size                              : 24.9 KiB (0%)
Title                                    : French (Canada)
Language                                 : French (CA)
Default                                  : No
Forced                                   : No

Text #15
ID                                       : 17
Format                                   : UTF-8
Codec ID                                 : S_TEXT/UTF8
Codec ID/Info                            : UTF-8 Plain Text
Duration                                 : 48 min 8 s
Bit rate                                 : 63 b/s
Frame rate                               : 0.252 FPS
Count of elements                        : 729
Stream size                              : 22.5 KiB (0%)
Title                                    : French (France)
Language                                 : French (FR)
Default                                  : No
Forced                                   : No

Text #16
ID                                       : 18
Format                                   : UTF-8
Codec ID                                 : S_TEXT/UTF8
Codec ID/Info                            : UTF-8 Plain Text
Duration                                 : 48 min 8 s
Bit rate                                 : 58 b/s
Frame rate                               : 0.253 FPS
Count of elements                        : 731
Stream size                              : 20.6 KiB (0%)
Language                                 : Galician (ES)
Default                                  : No
Forced                                   : No

Text #17
ID                                       : 19
Format                                   : UTF-8
Codec ID                                 : S_TEXT/UTF8
Codec ID/Info                            : UTF-8 Plain Text
Duration                                 : 48 min 8 s
Bit rate                                 : 104 b/s
Frame rate                               : 0.253 FPS
Count of elements                        : 731
Stream size                              : 36.7 KiB (0%)
Language                                 : Hebrew (IL)
Default                                  : No
Forced                                   : No

Text #18
ID                                       : 20
Format                                   : UTF-8
Codec ID                                 : S_TEXT/UTF8
Codec ID/Info                            : UTF-8 Plain Text
Duration                                 : 48 min 8 s
Bit rate                                 : 168 b/s
Frame rate                               : 0.253 FPS
Count of elements                        : 732
Stream size                              : 59.3 KiB (0%)
Language                                 : Hindi (IN)
Default                                  : No
Forced                                   : No

Text #19
ID                                       : 21
Format                                   : UTF-8
Codec ID                                 : S_TEXT/UTF8
Codec ID/Info                            : UTF-8 Plain Text
Duration                                 : 48 min 8 s
Bit rate                                 : 67 b/s
Frame rate                               : 0.253 FPS
Count of elements                        : 730
Stream size                              : 23.7 KiB (0%)
Language                                 : Hungarian (HU)
Default                                  : No
Forced                                   : No

Text #20
ID                                       : 22
Format                                   : UTF-8
Codec ID                                 : S_TEXT/UTF8
Codec ID/Info                            : UTF-8 Plain Text
Duration                                 : 48 min 8 s
Bit rate                                 : 63 b/s
Frame rate                               : 0.252 FPS
Count of elements                        : 729
Stream size                              : 22.2 KiB (0%)
Language                                 : Indonesian (ID)
Default                                  : No
Forced                                   : No

Text #21
ID                                       : 23
Format                                   : UTF-8
Codec ID                                 : S_TEXT/UTF8
Codec ID/Info                            : UTF-8 Plain Text
Duration                                 : 48 min 8 s
Bit rate                                 : 62 b/s
Frame rate                               : 0.252 FPS
Count of elements                        : 729
Stream size                              : 22.1 KiB (0%)
Language                                 : Italian (IT)
Default                                  : No
Forced                                   : No

Text #22
ID                                       : 24
Format                                   : UTF-8
Codec ID                                 : S_TEXT/UTF8
Codec ID/Info                            : UTF-8 Plain Text
Duration                                 : 48 min 8 s
Bit rate                                 : 59 b/s
Frame rate                               : 0.216 FPS
Count of elements                        : 624
Stream size                              : 21.0 KiB (0%)
Language                                 : Japanese (JP)
Default                                  : No
Forced                                   : No

Text #23
ID                                       : 25
Format                                   : UTF-8
Codec ID                                 : S_TEXT/UTF8
Codec ID/Info                            : UTF-8 Plain Text
Duration                                 : 48 min 8 s
Bit rate                                 : 162 b/s
Frame rate                               : 0.253 FPS
Count of elements                        : 732
Stream size                              : 57.3 KiB (0%)
Language                                 : Kannada (IN)
Default                                  : No
Forced                                   : No

Text #24
ID                                       : 26
Format                                   : UTF-8
Codec ID                                 : S_TEXT/UTF8
Codec ID/Info                            : UTF-8 Plain Text
Duration                                 : 48 min 8 s
Bit rate                                 : 66 b/s
Frame rate                               : 0.253 FPS
Count of elements                        : 731
Stream size                              : 23.5 KiB (0%)
Language                                 : Korean (KR)
Default                                  : No
Forced                                   : No

Text #25
ID                                       : 27
Format                                   : UTF-8
Codec ID                                 : S_TEXT/UTF8
Codec ID/Info                            : UTF-8 Plain Text
Duration                                 : 48 min 8 s
Bit rate                                 : 208 b/s
Frame rate                               : 0.253 FPS
Count of elements                        : 731
Stream size                              : 73.4 KiB (0%)
Language                                 : Malayalam (IN)
Default                                  : No
Forced                                   : No

Text #26
ID                                       : 28
Format                                   : UTF-8
Codec ID                                 : S_TEXT/UTF8
Codec ID/Info                            : UTF-8 Plain Text
Duration                                 : 48 min 8 s
Bit rate                                 : 69 b/s
Frame rate                               : 0.252 FPS
Count of elements                        : 729
Stream size                              : 24.5 KiB (0%)
Language                                 : Malay (MY)
Default                                  : No
Forced                                   : No

Text #27
ID                                       : 29
Format                                   : UTF-8
Codec ID                                 : S_TEXT/UTF8
Codec ID/Info                            : UTF-8 Plain Text
Duration                                 : 48 min 8 s
Bit rate                                 : 63 b/s
Frame rate                               : 0.252 FPS
Count of elements                        : 729
Stream size                              : 22.5 KiB (0%)
Language                                 : Norwegian Bokmal (NO)
Default                                  : No
Forced                                   : No

Text #28
ID                                       : 30
Format                                   : UTF-8
Codec ID                                 : S_TEXT/UTF8
Codec ID/Info                            : UTF-8 Plain Text
Duration                                 : 48 min 8 s
Bit rate                                 : 56 b/s
Frame rate                               : 0.251 FPS
Count of elements                        : 724
Stream size                              : 20.0 KiB (0%)
Language                                 : Dutch (NL)
Default                                  : No
Forced                                   : No

Text #29
ID                                       : 31
Format                                   : UTF-8
Codec ID                                 : S_TEXT/UTF8
Codec ID/Info                            : UTF-8 Plain Text
Duration                                 : 48 min 8 s
Bit rate                                 : 62 b/s
Frame rate                               : 0.252 FPS
Count of elements                        : 729
Stream size                              : 22.1 KiB (0%)
Language                                 : Polish (PL)
Default                                  : No
Forced                                   : No

Text #30
ID                                       : 32
Format                                   : UTF-8
Codec ID                                 : S_TEXT/UTF8
Codec ID/Info                            : UTF-8 Plain Text
Duration                                 : 48 min 8 s
Bit rate                                 : 66 b/s
Frame rate                               : 0.253 FPS
Count of elements                        : 731
Stream size                              : 23.4 KiB (0%)
Title                                    : Portuguese (Brazil)
Language                                 : Portuguese (BR)
Default                                  : No
Forced                                   : No

Text #31
ID                                       : 33
Format                                   : UTF-8
Codec ID                                 : S_TEXT/UTF8
Codec ID/Info                            : UTF-8 Plain Text
Duration                                 : 48 min 8 s
Bit rate                                 : 68 b/s
Frame rate                               : 0.252 FPS
Count of elements                        : 729
Stream size                              : 24.0 KiB (0%)
Title                                    : Portuguese (Portugal)
Language                                 : Portuguese (PT)
Default                                  : No
Forced                                   : No

Text #32
ID                                       : 34
Format                                   : UTF-8
Codec ID                                 : S_TEXT/UTF8
Codec ID/Info                            : UTF-8 Plain Text
Duration                                 : 48 min 8 s
Bit rate                                 : 71 b/s
Frame rate                               : 0.253 FPS
Count of elements                        : 731
Stream size                              : 25.3 KiB (0%)
Language                                 : Romanian (RO)
Default                                  : No
Forced                                   : No

Text #33
ID                                       : 35
Format                                   : UTF-8
Codec ID                                 : S_TEXT/UTF8
Codec ID/Info                            : UTF-8 Plain Text
Duration                                 : 48 min 8 s
Bit rate                                 : 107 b/s
Frame rate                               : 0.253 FPS
Count of elements                        : 732
Stream size                              : 37.8 KiB (0%)
Language                                 : Russian (RU)
Default                                  : No
Forced                                   : No

Text #34
ID                                       : 36
Format                                   : UTF-8
Codec ID                                 : S_TEXT/UTF8
Codec ID/Info                            : UTF-8 Plain Text
Duration                                 : 48 min 8 s
Bit rate                                 : 59 b/s
Frame rate                               : 0.252 FPS
Count of elements                        : 728
Stream size                              : 20.9 KiB (0%)
Language                                 : Swedish (SE)
Default                                  : No
Forced                                   : No

Text #35
ID                                       : 37
Format                                   : UTF-8
Codec ID                                 : S_TEXT/UTF8
Codec ID/Info                            : UTF-8 Plain Text
Duration                                 : 48 min 8 s
Bit rate                                 : 172 b/s
Frame rate                               : 0.253 FPS
Count of elements                        : 732
Stream size                              : 60.7 KiB (0%)
Language                                 : Tamil (IN)
Default                                  : No
Forced                                   : No

Text #36
ID                                       : 38
Format                                   : UTF-8
Codec ID                                 : S_TEXT/UTF8
Codec ID/Info                            : UTF-8 Plain Text
Duration                                 : 48 min 8 s
Bit rate                                 : 171 b/s
Frame rate                               : 0.253 FPS
Count of elements                        : 732
Stream size                              : 60.3 KiB (0%)
Language                                 : Telugu (IN)
Default                                  : No
Forced                                   : No

Text #37
ID                                       : 39
Format                                   : UTF-8
Codec ID                                 : S_TEXT/UTF8
Codec ID/Info                            : UTF-8 Plain Text
Duration                                 : 48 min 8 s
Bit rate                                 : 166 b/s
Frame rate                               : 0.253 FPS
Count of elements                        : 731
Stream size                              : 58.7 KiB (0%)
Language                                 : Thai (TH)
Default                                  : No
Forced                                   : No

Text #38
ID                                       : 40
Format                                   : UTF-8
Codec ID                                 : S_TEXT/UTF8
Codec ID/Info                            : UTF-8 Plain Text
Duration                                 : 48 min 8 s
Bit rate                                 : 65 b/s
Frame rate                               : 0.252 FPS
Count of elements                        : 729
Stream size                              : 23.1 KiB (0%)
Language                                 : Turkish (TR)
Default                                  : No
Forced                                   : No

Text #39
ID                                       : 41
Format                                   : UTF-8
Codec ID                                 : S_TEXT/UTF8
Codec ID/Info                            : UTF-8 Plain Text
Duration                                 : 48 min 8 s
Bit rate                                 : 106 b/s
Frame rate                               : 0.253 FPS
Count of elements                        : 732
Stream size                              : 37.5 KiB (0%)
Language                                 : Ukrainian (UA)
Default                                  : No
Forced                                   : No

Text #40
ID                                       : 42
Format                                   : UTF-8
Codec ID                                 : S_TEXT/UTF8
Codec ID/Info                            : UTF-8 Plain Text
Duration                                 : 48 min 8 s
Bit rate                                 : 82 b/s
Frame rate                               : 0.253 FPS
Count of elements                        : 730
Stream size                              : 29.1 KiB (0%)
Language                                 : Vietnamese (VN)
Default                                  : No
Forced                                   : No

Text #41
ID                                       : 43
Format                                   : UTF-8
Codec ID                                 : S_TEXT/UTF8
Codec ID/Info                            : UTF-8 Plain Text
Duration                                 : 48 min 8 s
Bit rate                                 : 64 b/s
Frame rate                               : 0.253 FPS
Count of elements                        : 731
Stream size                              : 22.6 KiB (0%)
Title                                    : Chinese (Simplified)
Language                                 : Chinese (Simplified)
Default                                  : No
Forced                                   : No

Text #42
ID                                       : 44
Format                                   : UTF-8
Codec ID                                 : S_TEXT/UTF8
Codec ID/Info                            : UTF-8 Plain Text
Duration                                 : 48 min 8 s
Bit rate                                 : 57 b/s
Frame rate                               : 0.253 FPS
Count of elements                        : 730
Stream size                              : 20.2 KiB (0%)
Title                                    : Chinese (Traditional)
Language                                 : Chinese (Traditional)
Default                                  : No
Forced                                   : No

Menu
00:00:00.000                             : en:Studio Logo
00:00:06.000                             : en:Previously On
00:00:52.000                             : en:Scene 3
00:01:33.000                             : en:Title Sequence
00:01:39.000                             : en:Scene 5
00:05:08.000                             : en:Scene 6
00:10:14.000                             : en:Scene 7
00:13:13.000                             : en:Scene 8
00:14:12.000                             : en:Scene 9
00:14:19.000                             : en:Scene 10
00:15:46.000                             : en:Scene 11
00:17:19.000                             : en:Scene 12
00:17:56.000                             : en:Scene 13
00:19:09.000                             : en:Scene 14
00:19:38.000                             : en:Scene 15
00:23:37.000                             : en:Scene 16
00:26:24.000                             : en:Scene 17
00:31:00.000                             : en:Scene 18
00:33:45.000                             : en:Scene 19
00:35:41.000                             : en:Scene 20
00:40:06.000                             : en:Scene 21
00:40:59.000                             : en:Scene 22
00:41:36.000                             : en:Scene 23
00:44:44.000                             : en:Scene 24
00:45:13.000                             : en:End Credits
00:45:21.000                             : en:Scene 26
00:45:54.000                             : en:Scene 27
00:47:21.000                             : en:End Credits



Download
File Container: MKV
Video/Audio Codec: H264 (HIGH) EAC3
Video Resolution: 1280x720
Please Login to post a comment.
If you don't have any account, please Register.
  • Subscribe my Feeds
  • Facebook
Encoding Queue:  x264  x265

Latest Episodes

Popular Movies and TV Shows

  • X-Men '97
  • Ghostbusters: Frozen Empire
  • Star Wars: The Bad Batch
  • Under the Bridge
  • An American Bombing: The Road to April 19th
  • La noche de los asesinos
  • FBI
  • The Cleaning Lady
  • FBI: International
  • Godzilla x Kong: The New Empire
  • Dune: Part Two
  • The Truth vs. Alex Jones
  • FBI: Most Wanted
  • Palm Royale
  • Shogun
  • La marge
  • Immaculate
  • Jimmy Carr: Natural Born Killer
  • NCIS
  • Curb Your Enthusiasm
  • NCIS: Hawai'i
  • Sweet Dreams
  • Project Dorothy
  • The 100th: Billy Joel at Madison Square Garden - The Greatest Arena Run of All Time
  • Fallout

Recent Comments

  • ubirattan:

    Mandem um Fikper, por favor.

  • kellym2: No answer yet for my query - why all the episodes "server under maintenance" on some episo...
  • Majnon:

    Rapidrar links are dead :(

  • Rake:

    Loads of "Server is under maintenance" with RR theese days...

  • kellym2: Why am I getting "Server is in maintenance mode" on some episodes of a series and not on o...
  • Bud:

    Are you ever going to put up Thursday's episode with Liev Schreiber?

  • alp-engin:

    When will that maintenance be over? Please...

  • mentalityx:

    Rad bloke

  • DownloadHostInspector:

    so far these RMTeam uploads always have a working link. DownloadHostInspector approved!

  • DownloadHostInspector:

    ah yes, this upload has a host that works. clicknupload. DownloadHostInspector approved!

  • DownloadHostInspector: Why are all the download hosts trash? none of them let you download it

Archives