Sign Up   |   Sign In  
Hannah Einbinder: Everything Must GoMILF of NorwayI Saw the TV GlowThe ChiWelcome to WrexhamUltraman: RisingThe Bold and the BeautifulSistasThe ChosenBratsNotas sobre un veranoThe Wrong Man: 17 Years Behind BarsWWE NXTThe BoysWalkerAssimilateMower MinionsMiddle of the NightEvilBridgertonCriminal MindsIn the Line of FireThe Artifice GirlLamp LifeThe Daily Show

Announcements

05/20

2024

1

Comments

Krapopolis S01E01 All Hail the Goddess of Likeability 1080p HULU WEB-DL DD 5 1 H 264-playWEB
[RR/NF/CU]
Size: 534MB mkv H264 (HIGH) / EAC3  HD  1920x1080

Krapopolis
File Information
[img]http://lookpic.com/cdn/i2/t/0520202411095176-1.jpg[/img]
[img]http://lookpic.com/cdn/i2/t/0520202411095176-2.jpg[/img]
[img]http://lookpic.com/cdn/i2/t/0520202411095176-3.jpg[/img]

General
Unique ID                                : 339262464914699927091792216737103657818 (0xFF3B92F2E1C78BAE7A352395611ABB5A)
Complete name                            : Krapopolis S01E01 All Hail the Goddess of Likeability 1080p HULU WEB-DL DD 5 1 H 264-playWEB.mkv
Format                                   : Matroska
Format version                           : Version 4
File size                                : 534 MiB
Duration                                 : 21 min 38 s
Overall bit rate                         : 3 451 kb/s
Frame rate                               : 23.976 FPS
Writing application                      : mkvmerge v84.0 ('Sleeper') 64-bit
Writing library                          : libebml v1.4.5 + libmatroska v1.7.1

Video
ID                                       : 1
Format                                   : AVC
Format/Info                              : Advanced Video Codec
Format profile                           : High@L4
Format settings                          : CABAC / 4 Ref Frames
Format settings, CABAC                   : Yes
Format settings, Reference frames        : 4 frames
Codec ID                                 : V_MPEG4/ISO/AVC
Duration                                 : 21 min 38 s
Bit rate                                 : 3 193 kb/s
Width                                    : 1 920 pixels
Height                                   : 1 080 pixels
Display aspect ratio                     : 16:9
Frame rate mode                          : Constant
Frame rate                               : 23.976 (24000/1001) FPS
Color space                              : YUV
Chroma subsampling                       : 4:2:0
Bit depth                                : 8 bits
Scan type                                : Progressive
Bits/(Pixel*Frame)                       : 0.064
Stream size                              : 494 MiB (93%)
Default                                  : Yes
Forced                                   : No

Audio
ID                                       : 2
Format                                   : E-AC-3
Format/Info                              : Enhanced AC-3
Commercial name                          : Dolby Digital Plus
Codec ID                                 : A_EAC3
Duration                                 : 21 min 38 s
Bit rate mode                            : Constant
Bit rate                                 : 256 kb/s
Channel(s)                               : 6 channels
Channel layout                           : L R C LFE Ls Rs
Sampling rate                            : 48.0 kHz
Frame rate                               : 31.250 FPS (1536 SPF)
Compression mode                         : Lossy
Stream size                              : 39.6 MiB (7%)
Language                                 : English
Service kind                             : Complete Main
Default                                  : Yes
Forced                                   : No

Text #1
ID                                       : 3
Format                                   : UTF-8
Codec ID                                 : S_TEXT/UTF8
Codec ID/Info                            : UTF-8 Plain Text
Duration                                 : 21 min 35 s
Bit rate                                 : 107 b/s
Frame rate                               : 0.474 FPS
Count of elements                        : 614
Stream size                              : 17.0 KiB (0%)
Language                                 : English
Default                                  : No
Forced                                   : No

Text #2
ID                                       : 4
Format                                   : UTF-8
Codec ID                                 : S_TEXT/UTF8
Codec ID/Info                            : UTF-8 Plain Text
Duration                                 : 21 min 35 s
Bit rate                                 : 112 b/s
Frame rate                               : 0.500 FPS
Count of elements                        : 648
Stream size                              : 17.8 KiB (0%)
Title                                    : SDH
Language                                 : English
Default                                  : No
Forced                                   : No



Download
File Container: MKV
Video/Audio Codec: H264 (HIGH) EAC3
Video Resolution: 1920x1080

1 Response to "[RR/NF/CU] Krapopolis S01E01 All Hail the Goddess of Likeability 1080p HULU WEB-DL DD 5 1 H 264-playWEB (534MB)"
05/20/24
11:58:08
ReadyPlayerOne

Thank You

Please Login to post a comment.
If you don't have any account, please Register.
  • Subscribe my Feeds
  • Facebook
Encoding Queue:  x264  x265

Latest Episodes

Popular Movies and TV Shows

  • Hannah Einbinder: Everything Must Go
  • MILF of Norway
  • I Saw the TV Glow
  • The Chi
  • Welcome to Wrexham
  • Ultraman: Rising
  • The Bold and the Beautiful
  • Sistas
  • The Chosen
  • Brats
  • Notas sobre un verano
  • WWE NXT
  • The Boys
  • Walker
  • Assimilate
  • Mower Minions
  • Middle of the Night
  • Evil
  • Bridgerton
  • Criminal Minds
  • In the Line of Fire
  • The Artifice Girl
  • Lamp Life
  • The Daily Show

Recent Comments

Archives