Sign Up   |   Sign In  
Furiosa: A Mad Max SagaThe Brokenwood MysteriesThe Boss' WifeLove Lies BleedingTsukimichi: Moonlit FantasyLing yi zhong lanThe SympathizerBack to BlackMasterChef AustraliaCivil WarThe ListenerThe EqualizerBeacon 23Sullivan's CrossingThe Jinx: The Life and Deaths of Robert DurstDamagedSongs of EarthDead WrongAbbott ElementaryThe RookieStar Trek: DiscoveryAtlasGaga Chromatica BallBob Marley: One LoveThe Daily Show

Announcements

04/23

2024

No

Comments

Krapopolis S01E19 Muse Your Illusion 1080p HULU WEB-DL DDP5 1 H 264-NTb
[RR/NF/CU]
Size: 520MB mkv H264 (HIGH) / EAC3  HD  1920x1080

Krapopolis
File Information
[img]http://lookpic.com/cdn/i2/t/0423202420395326-1.jpg[/img]
[img]http://lookpic.com/cdn/i2/t/0423202420395326-2.jpg[/img]
[img]http://lookpic.com/cdn/i2/t/0423202420395326-3.jpg[/img]

General
Unique ID                                : 77894145742592559299707656294680966556 (0x3A99DDE5269486A6406D0D0334B3359C)
Complete name                            : Krapopolis S01E19 Muse Your Illusion 1080p HULU WEB-DL DDP5 1 H 264-NTb.mkv
Format                                   : Matroska
Format version                           : Version 4
File size                                : 521 MiB
Duration                                 : 21 min 38 s
Overall bit rate                         : 3 366 kb/s
Frame rate                               : 23.976 FPS
Writing application                      : mkvmerge v80.0 ('Roundabout') 64-bit
Writing library                          : libebml v1.4.4 + libmatroska v1.7.1

Video
ID                                       : 1
Format                                   : AVC
Format/Info                              : Advanced Video Codec
Format profile                           : High@L4
Format settings                          : CABAC / 4 Ref Frames
Format settings, CABAC                   : Yes
Format settings, Reference frames        : 4 frames
Codec ID                                 : V_MPEG4/ISO/AVC
Duration                                 : 21 min 38 s
Bit rate                                 : 3 107 kb/s
Width                                    : 1 920 pixels
Height                                   : 1 080 pixels
Display aspect ratio                     : 16:9
Frame rate mode                          : Constant
Frame rate                               : 23.976 (24000/1001) FPS
Color space                              : YUV
Chroma subsampling                       : 4:2:0
Bit depth                                : 8 bits
Scan type                                : Progressive
Bits/(Pixel*Frame)                       : 0.063
Stream size                              : 481 MiB (92%)
Default                                  : Yes
Forced                                   : No

Audio
ID                                       : 2
Format                                   : E-AC-3
Format/Info                              : Enhanced AC-3
Commercial name                          : Dolby Digital Plus
Codec ID                                 : A_EAC3
Duration                                 : 21 min 38 s
Bit rate mode                            : Constant
Bit rate                                 : 256 kb/s
Channel(s)                               : 6 channels
Channel layout                           : L R C LFE Ls Rs
Sampling rate                            : 48.0 kHz
Frame rate                               : 31.250 FPS (1536 SPF)
Compression mode                         : Lossy
Stream size                              : 39.6 MiB (8%)
Language                                 : English
Service kind                             : Complete Main
Default                                  : Yes
Forced                                   : No

Text #1
ID                                       : 3
Format                                   : UTF-8
Codec ID                                 : S_TEXT/UTF8
Codec ID/Info                            : UTF-8 Plain Text
Duration                                 : 21 min 34 s
Bit rate                                 : 100 b/s
Frame rate                               : 0.357 FPS
Count of elements                        : 462
Stream size                              : 15.9 KiB (0%)
Language                                 : English
Default                                  : No
Forced                                   : No

Text #2
ID                                       : 4
Format                                   : UTF-8
Codec ID                                 : S_TEXT/UTF8
Codec ID/Info                            : UTF-8 Plain Text
Duration                                 : 21 min 34 s
Bit rate                                 : 109 b/s
Frame rate                               : 0.414 FPS
Count of elements                        : 536
Stream size                              : 17.3 KiB (0%)
Title                                    : SDH
Language                                 : English
Default                                  : No
Forced                                   : No

Menu
00:00:00.000                             : en:Chapter 1
00:10:10.010                             : en:Chapter 2
00:14:31.013                             : en:Chapter 3
00:20:40.011                             : en:Chapter 4



Download
File Container: MKV
Video/Audio Codec: H264 (HIGH) EAC3
Video Resolution: 1920x1080
Please Login to post a comment.
If you don't have any account, please Register.
  • Subscribe my Feeds
  • Facebook
Encoding Queue:  x264  x265

Latest Episodes

Popular Movies and TV Shows

  • Furiosa: A Mad Max Saga
  • The Brokenwood Mysteries
  • The Boss' Wife
  • Love Lies Bleeding
  • Tsukimichi: Moonlit Fantasy
  • Ling yi zhong lan
  • The Sympathizer
  • Back to Black
  • MasterChef Australia
  • Civil War
  • The Listener
  • The Equalizer
  • Beacon 23
  • Sullivan's Crossing
  • The Jinx: The Life and Deaths of Robert Durst
  • Damaged
  • Songs of Earth
  • Dead Wrong
  • Abbott Elementary
  • The Rookie
  • Star Trek: Discovery
  • Atlas
  • Gaga Chromatica Ball
  • Bob Marley: One Love
  • The Daily Show

Recent Comments

  • dilliboy: Will we ever see these RMTeam releases ever again? I hope they're not lost to the digital graveyard ...
  • kang:

    NitroFlare's link is missing...

  • kang:

    NitroFlare's link is missing...

  • Rafi85: Hi thx for the 14th season. Is it possible to reupload some episodes plz they were removed. These ar...
  • KubrickFan:

    Any possibility of a fresh link for this?

  • GubeShitemon: This is a different movie to the artwork version. Not the Dylan McDermott film but the Ben Affleck f...
  • Wrapt: Hahahaha yeah right make a liar out of me but I was referring to comments made about a movie or an e...
  • Wrapt: Comments are not always appearing in the Recent Comments list after submitting a comment any reason ...
  • waanaabe:

    warning: speaks German Swedish and French for those without English subs...

  • spiker1961:

    The audio on this is a commentary track, not the actual film audio.

  • spiker1961:

    The audio on this is a commentary track, not the film audio.

  • DuranDuran: The MS PAT show - - Does anyone have BOTH the MS PAT show (SEASON 4) & (SEASON 3) that just cam...
  • newuser:

    need english subtitles

  • Demonz:

    WTH is this

    NO season info and parts 1-13

  • meyat74:

    please add if possible new episodes 5-6

  • DuranDuran: THE MS PAT show = Does anyone have BOTH the MS PAT show (SEASON 3)-and- (SEASON 4) that just came ou...
  • big_ralphie: Just sitting down to watch and, yes there are subtitles...in ITALIAN ONLY. ENGLISH subs might be hel...

Archives