Sign Up   |   Sign In  
Star Trek: DiscoveryChicago FireChicago P.D.ReunionLadies and Gentlemen: The Rolling StonesBreaking PointThe Bold and the BeautifulEvilChicago MedBoy Kills WorldAfflictionMad GodFBIThe RookieFBI: Most WantedThe Fall GuyRachel Feinstein: Big GuyPeter Gabriel's Secret WorldDark MatterWill TrentFBI: InternationalMoonedThe Manchurian CandidateVisionsThe Daily Show

Announcements

04/12

2024

1

Comments

Law and Order Toronto Criminal Intent S01E06 Minnow And The Shark 720p AMZN WEB-DL DDP5 1 H 264-NTb
[RR/NF/CU]
Size: 1.1GB mkv H264 (HIGH) / EAC3  HD  1280x720

Law & Order Toronto: Criminal Intent
File Information
[img]http://lookpic.com/cdn/i2/t/0412202403485525-1.jpg[/img]
[img]http://lookpic.com/cdn/i2/t/0412202403485525-2.jpg[/img]
[img]http://lookpic.com/cdn/i2/t/0412202403485525-3.jpg[/img]

General
Unique ID                                : 293231262645743199465545839160503844698 (0xDC9A4974A31B9A30F1BEB72C7C583F5A)
Complete name                            : Law and Order Toronto Criminal Intent S01E06 Minnow And The Shark 720p AMZN WEB-DL DDP5 1 H 264-NTb.mkv
Format                                   : Matroska
Format version                           : Version 4
File size                                : 1.12 GiB
Duration                                 : 43 min 56 s
Overall bit rate                         : 3 654 kb/s
Frame rate                               : 29.970 FPS
Writing application                      : mkvmerge v81.0 ('Milliontown') 64-bit
Writing library                          : libebml v1.4.4 + libmatroska v1.7.1

Video
ID                                       : 1
Format                                   : AVC
Format/Info                              : Advanced Video Codec
Format profile                           : High@L3.1
Format settings                          : CABAC / 4 Ref Frames
Format settings, CABAC                   : Yes
Format settings, Reference frames        : 4 frames
Codec ID                                 : V_MPEG4/ISO/AVC
Duration                                 : 43 min 56 s
Bit rate mode                            : Constant
Bit rate                                 : 3 459 kb/s
Nominal bit rate                         : 4 000 kb/s
Width                                    : 1 280 pixels
Height                                   : 720 pixels
Display aspect ratio                     : 16:9
Frame rate mode                          : Constant
Frame rate                               : 29.970 (30000/1001) FPS
Color space                              : YUV
Chroma subsampling                       : 4:2:0
Bit depth                                : 8 bits
Scan type                                : Progressive
Bits/(Pixel*Frame)                       : 0.125
Stream size                              : 1.06 GiB (95%)
Default                                  : Yes
Forced                                   : No
Color range                              : Limited
Color primaries                          : BT.709
Transfer characteristics                 : BT.709
Matrix coefficients                      : BT.709

Audio
ID                                       : 2
Format                                   : E-AC-3
Format/Info                              : Enhanced AC-3
Commercial name                          : Dolby Digital Plus
Codec ID                                 : A_EAC3
Duration                                 : 43 min 56 s
Bit rate mode                            : Constant
Bit rate                                 : 192 kb/s
Channel(s)                               : 6 channels
Channel layout                           : L R C LFE Ls Rs
Sampling rate                            : 48.0 kHz
Frame rate                               : 31.250 FPS (1536 SPF)
Compression mode                         : Lossy
Delay relative to video                  : 20 ms
Stream size                              : 60.3 MiB (5%)
Language                                 : English (CA)
Service kind                             : Complete Main
Default                                  : Yes
Forced                                   : No

Text #1
ID                                       : 3
Format                                   : UTF-8
Codec ID                                 : S_TEXT/UTF8
Codec ID/Info                            : UTF-8 Plain Text
Duration                                 : 43 min 26 s
Bit rate                                 : 94 b/s
Frame rate                               : 0.346 FPS
Count of elements                        : 902
Stream size                              : 30.1 KiB (0%)
Language                                 : English (CA)
Default                                  : No
Forced                                   : No

Text #2
ID                                       : 4
Format                                   : UTF-8
Codec ID                                 : S_TEXT/UTF8
Codec ID/Info                            : UTF-8 Plain Text
Duration                                 : 43 min 26 s
Bit rate                                 : 96 b/s
Frame rate                               : 0.356 FPS
Count of elements                        : 928
Stream size                              : 30.8 KiB (0%)
Title                                    : SDH
Language                                 : English (CA)
Default                                  : No
Forced                                   : No



Download
File Container: MKV
Video/Audio Codec: H264 (HIGH) EAC3
Video Resolution: 1280x720

1 Response to "[RR/NF/CU] Law and Order Toronto Criminal Intent S01E06 Minnow And The Shark 720p AMZN WEB-DL DDP5 1 H 264-NTb (1.1GB)"
04/12/24
05:47:55
ReadyPlayerOne

Thank You

Please Login to post a comment.
If you don't have any account, please Register.
  • Subscribe my Feeds
  • Facebook
Encoding Queue:  x264  x265

Latest Episodes

Popular Movies and TV Shows

  • Star Trek: Discovery
  • Chicago Fire
  • Chicago P.D.
  • Reunion
  • Ladies and Gentlemen: The Rolling Stones
  • Breaking Point
  • The Bold and the Beautiful
  • Evil
  • Chicago Med
  • Boy Kills World
  • Affliction
  • Mad God
  • FBI
  • The Rookie
  • FBI: Most Wanted
  • The Fall Guy
  • Rachel Feinstein: Big Guy
  • Peter Gabriel's Secret World
  • Dark Matter
  • Will Trent
  • FBI: International
  • Mooned
  • The Manchurian Candidate
  • Visions
  • The Daily Show

Recent Comments

  • big_ralphie: Just sitting down to watch and, yes there are subtitles...in ITALIAN ONLY. ENGLISH subs might be hel...
  • Geependo:

    All links are dead

  • OldMovies:

    Has Czech subtitles but not English. Need forced English for the foreign language parts.

  • PROFessorMorrynarty: Would it be possible to upload 'Lego masters Australia' Series 6 Episode 6 Please? It's the only one...
  • mentalityx:

    Thx mate.

  • Bud: Is the search engine down for everyone, or just me? It just says 'You're forbidden!' whenever I lo...
  • 23d1:

    not episode 4 it is episode 3

  • 23d1:

    not episode 4 it is episode 3

  • 23d1:

    not episode 4 it is episode 3

  • 23d1:

    not episode 4 it is episode 3

Archives