Sign Up   |   Sign In  
Under the BridgeFBIFBI: InternationalGods of EgyptHanky PankyDrive-Away DollsThe Big Door PrizeLootFBI: Most WantedMR-9: Do or DieAccidental TexanMean GirlsShogunMonkey ManArthur the KingNCISThe NeighborhoodDowntown OwlNCIS: Hawai'iBob Hearts AbisholaThe SimpsonsAftermathOne LifeTime AddictsTracker

Announcements

03/31

2024

No

Comments

Letterkenny S06E06 Yew 1080p HULU WEB-DL AAC2 0 H 264-NTb
[RR/NF/CU]
Size: 751MB mkv H264 (HIGH) / AAC (HE-AAC)  HD  1920x1080

Letterkenny
File Information
[img]http://lookpic.com/cdn/i2/t/0331202419453717-1.jpg[/img]
[img]http://lookpic.com/cdn/i2/t/0331202419453717-2.jpg[/img]
[img]http://lookpic.com/cdn/i2/t/0331202419453717-3.jpg[/img]

General
Unique ID                                : 3800091814125139575456311262496257501 (0x2DBDEFDE505C775A5329D07DB9575DD)
Complete name                            : Letterkenny S06E06 Yew 1080p HULU WEB-DL AAC2 0 H 264-NTb.mkv
Format                                   : Matroska
Format version                           : Version 4
File size                                : 751 MiB
Duration                                 : 19 min 46 s
Overall bit rate                         : 5 312 kb/s
Frame rate                               : 23.976 FPS
Encoded date                             : 2018-12-27 13:02:41 UTC
Writing application                      : mkvmerge v28.2.0 ('The Awakening') 32-bit
Writing library                          : libebml v1.3.6 + libmatroska v1.4.9

Video
ID                                       : 1
Format                                   : AVC
Format/Info                              : Advanced Video Codec
Format profile                           : High@L4
Format settings                          : CABAC / 4 Ref Frames
Format settings, CABAC                   : Yes
Format settings, Reference frames        : 4 frames
Codec ID                                 : V_MPEG4/ISO/AVC
Duration                                 : 19 min 46 s
Bit rate                                 : 5 247 kb/s
Width                                    : 1 920 pixels
Height                                   : 1 080 pixels
Display aspect ratio                     : 16:9
Frame rate mode                          : Constant
Frame rate                               : 23.976 (24000/1001) FPS
Color space                              : YUV
Chroma subsampling                       : 4:2:0
Bit depth                                : 8 bits
Scan type                                : Progressive
Bits/(Pixel*Frame)                       : 0.106
Stream size                              : 742 MiB (99%)
Default                                  : Yes
Forced                                   : No

Audio
ID                                       : 2
Format                                   : AAC LC SBR
Format/Info                              : Advanced Audio Codec Low Complexity with Spectral Band Replication
Commercial name                          : HE-AAC
Format settings                          : Explicit
Codec ID                                 : A_AAC-2
Duration                                 : 19 min 46 s
Bit rate                                 : 64.0 kb/s
Channel(s)                               : 2 channels
Channel layout                           : L R
Sampling rate                            : 48.0 kHz
Frame rate                               : 23.438 FPS (2048 SPF)
Compression mode                         : Lossy
Stream size                              : 9.05 MiB (1%)
Default                                  : Yes
Forced                                   : No

Text
ID                                       : 3
Format                                   : UTF-8
Codec ID                                 : S_TEXT/UTF8
Codec ID/Info                            : UTF-8 Plain Text
Duration                                 : 18 min 20 s
Bit rate                                 : 107 b/s
Frame rate                               : 0.412 FPS
Count of elements                        : 453
Stream size                              : 14.4 KiB (0%)
Language                                 : English
Default                                  : No
Forced                                   : No



Download
File Container: MKV
Video/Audio Codec: H264 (HIGH) AAC (HE-AAC)
Video Resolution: 1920x1080
Please Login to post a comment.
If you don't have any account, please Register.
  • Subscribe my Feeds
  • Facebook
Encoding Queue:  x264  x265

Latest Episodes

Popular Movies and TV Shows

  • Under the Bridge
  • FBI
  • FBI: International
  • Gods of Egypt
  • Hanky Panky
  • Drive-Away Dolls
  • The Big Door Prize
  • Loot
  • FBI: Most Wanted
  • MR-9: Do or Die
  • Accidental Texan
  • Mean Girls
  • Shogun
  • Monkey Man
  • Arthur the King
  • NCIS
  • The Neighborhood
  • Downtown Owl
  • NCIS: Hawai'i
  • Bob Hearts Abishola
  • The Simpsons
  • Aftermath
  • One Life
  • Time Addicts
  • Tracker

Recent Comments

  • ReadyPlayerOne:

    THANK YOU

  • ReadyPlayerOne:

    THANK YOU

  • ReadyPlayerOne:

    THANK YOU

  • mentalityx:

    Thx dude.

  • 89M:

    NitroFlare's link is missing !!!
    Clicknupload's link is missing !!!

  • V4ND4L: May we get a ClicknUpload link for this, please. It's conspicuously missing for the team/size.
  • Bud:

    The file's half the size it should be & corrupted. Useless. Avoid.

  • mentalityx:

    Rad dude

  • mentalityx:

    Rad mate

  • waanaabe:

    I tried this file with 3 different players which all said they couldn't read the codec

  • Rosa: hi i have a question,this file size is 198mb,but on clickenupload is only 118mb is it right? what ha...
  • mike1204:

    Any reason why this episode is omitted from 'click'n'upload??

  • kellym2: I appreciate all the hard work the team does BUT there is no point in my paying for a Premium subscr...
  • Cinque_Persson: Why not skip the old news and hearsay and be constructive: what's the best alternatives for Win, Mac...
  • fallensammer:

    the file on click upload is 119mg onnly and is corrupted

Archives