Sign Up   |   Sign In  
Devil in the FleshThe SimpsonsKrapopolisGolden KamuyWhen Calls the HeartChallengersTrackerThe EqualizerCSI: VegasTriple FrontierA Walk Among the TombstonesEarthtastropheThe SympathizerBob's BurgersThe Great NorthThe Baby DaddyPhil Tippett: Mad Dreams and MonstersDawn of the Planet of the ApesBeacon 23Young SheldonInterview with the VampireEverything PuppiesExhumaPlanet of the ApesS.W.A.T.

Announcements

04/24

2024

1

Comments

Loot S02E05 Mallys 1080p ATVP WEB-DL DDP5 1 H 264-NTb
[RR/NF/CU]
Size: 1.9GB mkv H264 (HIGH) / EAC3  HD  1920x960

Loot
File Information
[img]http://lookpic.com/cdn/i2/t/0424202403452830-1.jpg[/img]
[img]http://lookpic.com/cdn/i2/t/0424202403452830-2.jpg[/img]
[img]http://lookpic.com/cdn/i2/t/0424202403452830-3.jpg[/img]

General
Unique ID                                : 328138961729066239784540985467750110704 (0xF6DD43E634BB8477D118B8488D84D5F0)
Complete name                            : Loot S02E05 Mallys 1080p ATVP WEB-DL DDP5 1 H 264-NTb.mkv
Format                                   : Matroska
Format version                           : Version 4
File size                                : 1.92 GiB
Duration                                 : 25 min 36 s
Overall bit rate                         : 10.7 Mb/s
Frame rate                               : 23.976 FPS
Writing application                      : mkvmerge v81.0 ('Milliontown') 64-bit
Writing library                          : libebml v1.4.4 + libmatroska v1.7.1

Video
ID                                       : 1
Format                                   : AVC
Format/Info                              : Advanced Video Codec
Format profile                           : High@L4
Format settings                          : CABAC / 4 Ref Frames
Format settings, CABAC                   : Yes
Format settings, Reference frames        : 4 frames
Codec ID                                 : V_MPEG4/ISO/AVC
Duration                                 : 25 min 36 s
Bit rate                                 : 9 941 kb/s
Width                                    : 1 920 pixels
Height                                   : 960 pixels
Display aspect ratio                     : 2.000
Frame rate mode                          : Constant
Frame rate                               : 23.976 (24000/1001) FPS
Color space                              : YUV
Chroma subsampling                       : 4:2:0
Bit depth                                : 8 bits
Scan type                                : Progressive
Bits/(Pixel*Frame)                       : 0.225
Stream size                              : 1.78 GiB (93%)
Default                                  : Yes
Forced                                   : No
Color range                              : Limited
Color primaries                          : BT.709
Transfer characteristics                 : BT.709
Matrix coefficients                      : BT.709

Audio
ID                                       : 2
Format                                   : E-AC-3 JOC
Format/Info                              : Enhanced AC-3 with Joint Object Coding
Commercial name                          : Dolby Digital Plus with Dolby Atmos
Codec ID                                 : A_EAC3
Duration                                 : 25 min 36 s
Bit rate mode                            : Constant
Bit rate                                 : 768 kb/s
Channel(s)                               : 6 channels
Channel layout                           : L R C LFE Ls Rs
Sampling rate                            : 48.0 kHz
Frame rate                               : 31.250 FPS (1536 SPF)
Compression mode                         : Lossy
Stream size                              : 141 MiB (7%)
Language                                 : English
Service kind                             : Complete Main
Default                                  : Yes
Forced                                   : No
Complexity index                         : 16
Number of dynamic objects                : 15
Bed channel count                        : 1 channel
Bed channel configuration                : LFE

Text #1
ID                                       : 3
Format                                   : UTF-8
Codec ID                                 : S_TEXT/UTF8
Codec ID/Info                            : UTF-8 Plain Text
Duration                                 : 2 s 836 ms
Bit rate                                 : 87 b/s
Frame rate                               : 0.353 FPS
Count of elements                        : 1
Stream size                              : 31.0 Bytes (0%)
Title                                    : Forced
Language                                 : English
Default                                  : Yes
Forced                                   : Yes

Text #2
ID                                       : 4
Format                                   : UTF-8
Codec ID                                 : S_TEXT/UTF8
Codec ID/Info                            : UTF-8 Plain Text
Duration                                 : 24 min 15 s
Bit rate                                 : 104 b/s
Frame rate                               : 0.323 FPS
Count of elements                        : 470
Stream size                              : 18.5 KiB (0%)
Language                                 : English
Default                                  : No
Forced                                   : No

Text #3
ID                                       : 5
Format                                   : UTF-8
Codec ID                                 : S_TEXT/UTF8
Codec ID/Info                            : UTF-8 Plain Text
Duration                                 : 24 min 18 s
Bit rate                                 : 114 b/s
Frame rate                               : 0.339 FPS
Count of elements                        : 495
Stream size                              : 20.4 KiB (0%)
Title                                    : SDH
Language                                 : English
Default                                  : No
Forced                                   : No

Text #4
ID                                       : 6
Format                                   : UTF-8
Codec ID                                 : S_TEXT/UTF8
Codec ID/Info                            : UTF-8 Plain Text
Duration                                 : 25 min 16 s
Bit rate                                 : 140 b/s
Frame rate                               : 0.313 FPS
Count of elements                        : 475
Stream size                              : 26.0 KiB (0%)
Language                                 : Arabic
Default                                  : No
Forced                                   : No

Text #5
ID                                       : 7
Format                                   : UTF-8
Codec ID                                 : S_TEXT/UTF8
Codec ID/Info                            : UTF-8 Plain Text
Duration                                 : 25 min 16 s
Bit rate                                 : 132 b/s
Frame rate                               : 0.254 FPS
Count of elements                        : 385
Stream size                              : 24.5 KiB (0%)
Language                                 : Bulgarian
Default                                  : No
Forced                                   : No

Text #6
ID                                       : 8
Format                                   : UTF-8
Codec ID                                 : S_TEXT/UTF8
Codec ID/Info                            : UTF-8 Plain Text
Duration                                 : 25 min 16 s
Bit rate                                 : 87 b/s
Frame rate                               : 0.313 FPS
Count of elements                        : 475
Stream size                              : 16.1 KiB (0%)
Title                                    : Chinese (Simplified)
Language                                 : Chinese (Simplified)
Default                                  : No
Forced                                   : No

Text #7
ID                                       : 9
Format                                   : UTF-8
Codec ID                                 : S_TEXT/UTF8
Codec ID/Info                            : UTF-8 Plain Text
Duration                                 : 25 min 16 s
Bit rate                                 : 90 b/s
Frame rate                               : 0.314 FPS
Count of elements                        : 476
Stream size                              : 16.7 KiB (0%)
Title                                    : Chinese (Traditional)
Language                                 : Chinese (Traditional)
Default                                  : No
Forced                                   : No

Text #8
ID                                       : 10
Format                                   : UTF-8
Codec ID                                 : S_TEXT/UTF8
Codec ID/Info                            : UTF-8 Plain Text
Duration                                 : 25 min 16 s
Bit rate                                 : 86 b/s
Frame rate                               : 0.294 FPS
Count of elements                        : 446
Stream size                              : 16.0 KiB (0%)
Language                                 : Czech
Default                                  : No
Forced                                   : No

Text #9
ID                                       : 11
Format                                   : UTF-8
Codec ID                                 : S_TEXT/UTF8
Codec ID/Info                            : UTF-8 Plain Text
Duration                                 : 25 min 16 s
Bit rate                                 : 82 b/s
Frame rate                               : 0.249 FPS
Count of elements                        : 377
Stream size                              : 15.2 KiB (0%)
Language                                 : Danish
Default                                  : No
Forced                                   : No

Text #10
ID                                       : 12
Format                                   : UTF-8
Codec ID                                 : S_TEXT/UTF8
Codec ID/Info                            : UTF-8 Plain Text
Duration                                 : 24 min 34 s
Bit rate                                 : 90 b/s
Frame rate                               : 0.288 FPS
Count of elements                        : 424
Stream size                              : 16.3 KiB (0%)
Language                                 : German
Default                                  : No
Forced                                   : No

Text #11
ID                                       : 13
Format                                   : UTF-8
Codec ID                                 : S_TEXT/UTF8
Codec ID/Info                            : UTF-8 Plain Text
Duration                                 : 25 min 16 s
Bit rate                                 : 154 b/s
Frame rate                               : 0.298 FPS
Count of elements                        : 452
Stream size                              : 28.5 KiB (0%)
Language                                 : Greek
Default                                  : No
Forced                                   : No

Text #12
ID                                       : 14
Format                                   : UTF-8
Codec ID                                 : S_TEXT/UTF8
Codec ID/Info                            : UTF-8 Plain Text
Duration                                 : 25 min 16 s
Bit rate                                 : 94 b/s
Frame rate                               : 0.312 FPS
Count of elements                        : 473
Stream size                              : 17.5 KiB (0%)
Title                                    : Spanish (Latin America)
Language                                 : Spanish (Latin America)
Default                                  : No
Forced                                   : No

Text #13
ID                                       : 15
Format                                   : UTF-8
Codec ID                                 : S_TEXT/UTF8
Codec ID/Info                            : UTF-8 Plain Text
Duration                                 : 25 min 16 s
Bit rate                                 : 101 b/s
Frame rate                               : 0.307 FPS
Count of elements                        : 465
Stream size                              : 18.8 KiB (0%)
Title                                    : Spanish (Spain)
Language                                 : Spanish (ES)
Default                                  : No
Forced                                   : No

Text #14
ID                                       : 16
Format                                   : UTF-8
Codec ID                                 : S_TEXT/UTF8
Codec ID/Info                            : UTF-8 Plain Text
Duration                                 : 25 min 16 s
Bit rate                                 : 90 b/s
Frame rate                               : 0.286 FPS
Count of elements                        : 434
Stream size                              : 16.7 KiB (0%)
Language                                 : Estonian
Default                                  : No
Forced                                   : No

Text #15
ID                                       : 17
Format                                   : UTF-8
Codec ID                                 : S_TEXT/UTF8
Codec ID/Info                            : UTF-8 Plain Text
Duration                                 : 25 min 16 s
Bit rate                                 : 87 b/s
Frame rate                               : 0.278 FPS
Count of elements                        : 422
Stream size                              : 16.2 KiB (0%)
Language                                 : Finnish
Default                                  : No
Forced                                   : No

Text #16
ID                                       : 18
Format                                   : UTF-8
Codec ID                                 : S_TEXT/UTF8
Codec ID/Info                            : UTF-8 Plain Text
Duration                                 : 25 min 15 s
Bit rate                                 : 84 b/s
Frame rate                               : 0.309 FPS
Count of elements                        : 469
Stream size                              : 15.6 KiB (0%)
Title                                    : French (Canada)
Language                                 : French (CA)
Default                                  : No
Forced                                   : No

Text #17
ID                                       : 19
Format                                   : UTF-8
Codec ID                                 : S_TEXT/UTF8
Codec ID/Info                            : UTF-8 Plain Text
Duration                                 : 25 min 15 s
Bit rate                                 : 84 b/s
Frame rate                               : 0.309 FPS
Count of elements                        : 468
Stream size                              : 15.6 KiB (0%)
Title                                    : French (France)
Language                                 : French (FR)
Default                                  : No
Forced                                   : No

Text #18
ID                                       : 20
Format                                   : UTF-8
Codec ID                                 : S_TEXT/UTF8
Codec ID/Info                            : UTF-8 Plain Text
Duration                                 : 25 min 16 s
Bit rate                                 : 132 b/s
Frame rate                               : 0.313 FPS
Count of elements                        : 475
Stream size                              : 24.5 KiB (0%)
Language                                 : Hebrew
Default                                  : No
Forced                                   : No

Text #19
ID                                       : 21
Format                                   : UTF-8
Codec ID                                 : S_TEXT/UTF8
Codec ID/Info                            : UTF-8 Plain Text
Duration                                 : 25 min 16 s
Bit rate                                 : 266 b/s
Frame rate                               : 0.314 FPS
Count of elements                        : 476
Stream size                              : 49.4 KiB (0%)
Language                                 : Hindi
Default                                  : No
Forced                                   : No

Text #20
ID                                       : 22
Format                                   : UTF-8
Codec ID                                 : S_TEXT/UTF8
Codec ID/Info                            : UTF-8 Plain Text
Duration                                 : 25 min 16 s
Bit rate                                 : 100 b/s
Frame rate                               : 0.313 FPS
Count of elements                        : 475
Stream size                              : 18.5 KiB (0%)
Language                                 : Hungarian
Default                                  : No
Forced                                   : No

Text #21
ID                                       : 23
Format                                   : UTF-8
Codec ID                                 : S_TEXT/UTF8
Codec ID/Info                            : UTF-8 Plain Text
Duration                                 : 25 min 16 s
Bit rate                                 : 100 b/s
Frame rate                               : 0.313 FPS
Count of elements                        : 474
Stream size                              : 18.6 KiB (0%)
Language                                 : Indonesian
Default                                  : No
Forced                                   : No

Text #22
ID                                       : 24
Format                                   : UTF-8
Codec ID                                 : S_TEXT/UTF8
Codec ID/Info                            : UTF-8 Plain Text
Duration                                 : 25 min 13 s
Bit rate                                 : 96 b/s
Frame rate                               : 0.313 FPS
Count of elements                        : 473
Stream size                              : 17.9 KiB (0%)
Language                                 : Italian
Default                                  : No
Forced                                   : No

Text #23
ID                                       : 25
Format                                   : UTF-8
Codec ID                                 : S_TEXT/UTF8
Codec ID/Info                            : UTF-8 Plain Text
Duration                                 : 25 min 22 s
Bit rate                                 : 75 b/s
Frame rate                               : 0.307 FPS
Count of elements                        : 467
Stream size                              : 14.1 KiB (0%)
Language                                 : Japanese
Default                                  : No
Forced                                   : No

Text #24
ID                                       : 26
Format                                   : UTF-8
Codec ID                                 : S_TEXT/UTF8
Codec ID/Info                            : UTF-8 Plain Text
Duration                                 : 25 min 16 s
Bit rate                                 : 111 b/s
Frame rate                               : 0.313 FPS
Count of elements                        : 475
Stream size                              : 20.6 KiB (0%)
Language                                 : Korean
Default                                  : No
Forced                                   : No

Text #25
ID                                       : 27
Format                                   : UTF-8
Codec ID                                 : S_TEXT/UTF8
Codec ID/Info                            : UTF-8 Plain Text
Duration                                 : 25 min 16 s
Bit rate                                 : 98 b/s
Frame rate                               : 0.313 FPS
Count of elements                        : 474
Stream size                              : 18.3 KiB (0%)
Language                                 : Lithuanian
Default                                  : No
Forced                                   : No

Text #26
ID                                       : 28
Format                                   : UTF-8
Codec ID                                 : S_TEXT/UTF8
Codec ID/Info                            : UTF-8 Plain Text
Duration                                 : 25 min 16 s
Bit rate                                 : 97 b/s
Frame rate                               : 0.309 FPS
Count of elements                        : 468
Stream size                              : 18.1 KiB (0%)
Language                                 : Latvian
Default                                  : No
Forced                                   : No

Text #27
ID                                       : 29
Format                                   : UTF-8
Codec ID                                 : S_TEXT/UTF8
Codec ID/Info                            : UTF-8 Plain Text
Duration                                 : 25 min 16 s
Bit rate                                 : 92 b/s
Frame rate                               : 0.312 FPS
Count of elements                        : 473
Stream size                              : 17.1 KiB (0%)
Language                                 : Malay
Default                                  : No
Forced                                   : No

Text #28
ID                                       : 30
Format                                   : UTF-8
Codec ID                                 : S_TEXT/UTF8
Codec ID/Info                            : UTF-8 Plain Text
Duration                                 : 25 min 16 s
Bit rate                                 : 83 b/s
Frame rate                               : 0.233 FPS
Count of elements                        : 353
Stream size                              : 15.4 KiB (0%)
Language                                 : Dutch
Default                                  : No
Forced                                   : No

Text #29
ID                                       : 31
Format                                   : UTF-8
Codec ID                                 : S_TEXT/UTF8
Codec ID/Info                            : UTF-8 Plain Text
Duration                                 : 25 min 16 s
Bit rate                                 : 87 b/s
Frame rate                               : 0.242 FPS
Count of elements                        : 367
Stream size                              : 16.3 KiB (0%)
Language                                 : Norwegian
Default                                  : No
Forced                                   : No

Text #30
ID                                       : 32
Format                                   : UTF-8
Codec ID                                 : S_TEXT/UTF8
Codec ID/Info                            : UTF-8 Plain Text
Duration                                 : 25 min 16 s
Bit rate                                 : 91 b/s
Frame rate                               : 0.309 FPS
Count of elements                        : 469
Stream size                              : 16.9 KiB (0%)
Language                                 : Polish
Default                                  : No
Forced                                   : No

Text #31
ID                                       : 33
Format                                   : UTF-8
Codec ID                                 : S_TEXT/UTF8
Codec ID/Info                            : UTF-8 Plain Text
Duration                                 : 25 min 16 s
Bit rate                                 : 90 b/s
Frame rate                               : 0.308 FPS
Count of elements                        : 467
Stream size                              : 16.7 KiB (0%)
Title                                    : Portuguese
Language                                 : Portuguese
Default                                  : No
Forced                                   : No

Text #32
ID                                       : 34
Format                                   : UTF-8
Codec ID                                 : S_TEXT/UTF8
Codec ID/Info                            : UTF-8 Plain Text
Duration                                 : 25 min 16 s
Bit rate                                 : 90 b/s
Frame rate                               : 0.303 FPS
Count of elements                        : 460
Stream size                              : 16.7 KiB (0%)
Title                                    : Portuguese (Brazil)
Language                                 : Portuguese (BR)
Default                                  : No
Forced                                   : No

Text #33
ID                                       : 35
Format                                   : UTF-8
Codec ID                                 : S_TEXT/UTF8
Codec ID/Info                            : UTF-8 Plain Text
Duration                                 : 25 min 16 s
Bit rate                                 : 140 b/s
Frame rate                               : 0.305 FPS
Count of elements                        : 463
Stream size                              : 26.1 KiB (0%)
Language                                 : Russian
Default                                  : No
Forced                                   : No

Text #34
ID                                       : 36
Format                                   : UTF-8
Codec ID                                 : S_TEXT/UTF8
Codec ID/Info                            : UTF-8 Plain Text
Duration                                 : 25 min 16 s
Bit rate                                 : 93 b/s
Frame rate                               : 0.311 FPS
Count of elements                        : 471
Stream size                              : 17.2 KiB (0%)
Language                                 : Slovak
Default                                  : No
Forced                                   : No

Text #35
ID                                       : 37
Format                                   : UTF-8
Codec ID                                 : S_TEXT/UTF8
Codec ID/Info                            : UTF-8 Plain Text
Duration                                 : 25 min 16 s
Bit rate                                 : 74 b/s
Frame rate                               : 0.305 FPS
Count of elements                        : 462
Stream size                              : 13.8 KiB (0%)
Language                                 : Slovenian
Default                                  : No
Forced                                   : No

Text #36
ID                                       : 38
Format                                   : UTF-8
Codec ID                                 : S_TEXT/UTF8
Codec ID/Info                            : UTF-8 Plain Text
Duration                                 : 25 min 16 s
Bit rate                                 : 83 b/s
Frame rate                               : 0.264 FPS
Count of elements                        : 401
Stream size                              : 15.5 KiB (0%)
Language                                 : Swedish
Default                                  : No
Forced                                   : No

Text #37
ID                                       : 39
Format                                   : UTF-8
Codec ID                                 : S_TEXT/UTF8
Codec ID/Info                            : UTF-8 Plain Text
Duration                                 : 25 min 16 s
Bit rate                                 : 317 b/s
Frame rate                               : 0.313 FPS
Count of elements                        : 475
Stream size                              : 58.8 KiB (0%)
Language                                 : Tamil
Default                                  : No
Forced                                   : No

Text #38
ID                                       : 40
Format                                   : UTF-8
Codec ID                                 : S_TEXT/UTF8
Codec ID/Info                            : UTF-8 Plain Text
Duration                                 : 25 min 16 s
Bit rate                                 : 292 b/s
Frame rate                               : 0.313 FPS
Count of elements                        : 475
Stream size                              : 54.2 KiB (0%)
Language                                 : Telugu
Default                                  : No
Forced                                   : No

Text #39
ID                                       : 41
Format                                   : UTF-8
Codec ID                                 : S_TEXT/UTF8
Codec ID/Info                            : UTF-8 Plain Text
Duration                                 : 25 min 16 s
Bit rate                                 : 233 b/s
Frame rate                               : 0.313 FPS
Count of elements                        : 475
Stream size                              : 43.3 KiB (0%)
Language                                 : Thai
Default                                  : No
Forced                                   : No

Text #40
ID                                       : 42
Format                                   : UTF-8
Codec ID                                 : S_TEXT/UTF8
Codec ID/Info                            : UTF-8 Plain Text
Duration                                 : 25 min 16 s
Bit rate                                 : 97 b/s
Frame rate                               : 0.294 FPS
Count of elements                        : 446
Stream size                              : 18.0 KiB (0%)
Language                                 : Turkish
Default                                  : No
Forced                                   : No

Text #41
ID                                       : 43
Format                                   : UTF-8
Codec ID                                 : S_TEXT/UTF8
Codec ID/Info                            : UTF-8 Plain Text
Duration                                 : 25 min 16 s
Bit rate                                 : 140 b/s
Frame rate                               : 0.314 FPS
Count of elements                        : 476
Stream size                              : 26.0 KiB (0%)
Language                                 : Ukrainian
Default                                  : No
Forced                                   : No

Text #42
ID                                       : 44
Format                                   : UTF-8
Codec ID                                 : S_TEXT/UTF8
Codec ID/Info                            : UTF-8 Plain Text
Duration                                 : 25 min 16 s
Bit rate                                 : 119 b/s
Frame rate                               : 0.313 FPS
Count of elements                        : 475
Stream size                              : 22.2 KiB (0%)
Language                                 : Vietnamese
Default                                  : No
Forced                                   : No

Text #43
ID                                       : 45
Format                                   : UTF-8
Codec ID                                 : S_TEXT/UTF8
Codec ID/Info                            : UTF-8 Plain Text
Duration                                 : 25 min 16 s
Bit rate                                 : 76 b/s
Frame rate                               : 0.314 FPS
Count of elements                        : 476
Stream size                              : 14.2 KiB (0%)
Title                                    : Chinese (Traditional)
Language                                 : Chinese (Traditional)
Default                                  : No
Forced                                   : No

Menu
00:00:00.000                             : en:Chapter 1
00:03:08.041                             : en:Intro
00:03:44.416                             : en:Chapter 2



Download
File Container: MKV
Video/Audio Codec: H264 (HIGH) EAC3
Video Resolution: 1920x960

1 Response to "[RR/NF/CU] Loot S02E05 Mallys 1080p ATVP WEB-DL DDP5 1 H 264-NTb (1.9GB)"
04/24/24
04:41:55
ReadyPlayerOne

Thank you!

Please Login to post a comment.
If you don't have any account, please Register.
  • Subscribe my Feeds
  • Facebook
Encoding Queue:  x264  x265

Latest Episodes

Popular Movies and TV Shows

  • Devil in the Flesh
  • The Simpsons
  • Krapopolis
  • Golden Kamuy
  • When Calls the Heart
  • Challengers
  • Tracker
  • The Equalizer
  • CSI: Vegas
  • Triple Frontier
  • A Walk Among the Tombstones
  • Earthtastrophe
  • The Sympathizer
  • Bob's Burgers
  • The Great North
  • The Baby Daddy
  • Phil Tippett: Mad Dreams and Monsters
  • Dawn of the Planet of the Apes
  • Beacon 23
  • Young Sheldon
  • Interview with the Vampire
  • Everything Puppies
  • Exhuma
  • Planet of the Apes
  • S.W.A.T.

Recent Comments

  • Bud: Is the search engine down for everyone, or just me? It just says 'You're forbidden!' whenever I lo...
  • 23d1:

    not episode 4 it is episode 3

  • 23d1:

    not episode 4 it is episode 3

  • 23d1:

    not episode 4 it is episode 3

  • 23d1:

    not episode 4 it is episode 3

  • aaroz88:

    Trimas!!

  • mptoo: I don't often ask this, infact this would be the first time, but I don't suppose there is any chance...
  • Cinque_Persson:

    btw:
    quote /quote
    is broken

  • gabrielsyme:

    Sorry but where is the clicknupload link?

  • mike1204:

    Is this episode doomed??? The RMX avi version is only 12 minutes long!!!

  • waanaabe:

    Could PUSHING DAISES kindly be upoaded to CU? THANKS!

Archives