Sign Up   |   Sign In  
WWE NXTThe Feeling That the Time for Doing Something Has PassedElizabethan Express12 StrongLaw & Order: Organized CrimeDie ZweiflersFuriosa: A Mad Max SagaMasterChef AustraliaUnder the BridgePanchayatAutoeroticTarotDark MatterThe Big Door PrizeLootYour Mother's SonMahal ko ang mahal moCivil WarThe Bold and the BeautifulThe SimpsonsWWE RawThe First OmenThis Beautiful FantasticSerbidorasThe Daily Show

Announcements

04/23

2024

1

Comments

NCIS Hawaii S03E08 Into Thin Air 720p AMZN WEB-DL DDP5 1 H 264-NTb
[RR/NF/CU]
Size: 1GB mkv H264 (HIGH) / EAC3  HD  1280x720

NCIS: Hawai'i
File Information
[img]http://lookpic.com/cdn/i2/t/0423202416442136-1.jpg[/img]
[img]http://lookpic.com/cdn/i2/t/0423202416442136-2.jpg[/img]
[img]http://lookpic.com/cdn/i2/t/0423202416442136-3.jpg[/img]

General
Unique ID                                : 285550862868716592031729944683888603335 (0xD6D31882B54698938864005717F970C7)
Complete name                            : NCIS Hawaii S03E08 Into Thin Air 720p AMZN WEB-DL DDP5 1 H 264-NTb.mkv
Format                                   : Matroska
Format version                           : Version 4
File size                                : 1.03 GiB
Duration                                 : 42 min 59 s
Overall bit rate                         : 3 430 kb/s
Frame rate                               : 23.976 FPS
Writing application                      : mkvmerge v81.0 ('Milliontown') 64-bit
Writing library                          : libebml v1.4.4 + libmatroska v1.7.1

Video
ID                                       : 1
Format                                   : AVC
Format/Info                              : Advanced Video Codec
Format profile                           : High@L3.1
Format settings                          : CABAC / 4 Ref Frames
Format settings, CABAC                   : Yes
Format settings, Reference frames        : 4 frames
Codec ID                                 : V_MPEG4/ISO/AVC
Duration                                 : 42 min 59 s
Bit rate mode                            : Constant
Bit rate                                 : 2 787 kb/s
Nominal bit rate                         : 4 000 kb/s
Width                                    : 1 280 pixels
Height                                   : 720 pixels
Display aspect ratio                     : 16:9
Frame rate mode                          : Constant
Frame rate                               : 23.976 (24000/1001) FPS
Color space                              : YUV
Chroma subsampling                       : 4:2:0
Bit depth                                : 8 bits
Scan type                                : Progressive
Bits/(Pixel*Frame)                       : 0.126
Stream size                              : 857 MiB (81%)
Default                                  : Yes
Forced                                   : No
Color range                              : Limited
Color primaries                          : BT.709
Transfer characteristics                 : BT.709
Matrix coefficients                      : BT.709

Audio
ID                                       : 2
Format                                   : E-AC-3
Format/Info                              : Enhanced AC-3
Commercial name                          : Dolby Digital Plus
Codec ID                                 : A_EAC3
Duration                                 : 42 min 59 s
Bit rate mode                            : Constant
Bit rate                                 : 640 kb/s
Channel(s)                               : 6 channels
Channel layout                           : L R C LFE Ls Rs
Sampling rate                            : 48.0 kHz
Frame rate                               : 31.250 FPS (1536 SPF)
Compression mode                         : Lossy
Stream size                              : 197 MiB (19%)
Language                                 : English (US)
Service kind                             : Complete Main
Default                                  : Yes
Forced                                   : No

Text #1
ID                                       : 3
Format                                   : UTF-8
Codec ID                                 : S_TEXT/UTF8
Codec ID/Info                            : UTF-8 Plain Text
Duration                                 : 42 min 29 s
Bit rate                                 : 98 b/s
Frame rate                               : 0.389 FPS
Count of elements                        : 991
Stream size                              : 30.5 KiB (0%)
Language                                 : English (US)
Default                                  : No
Forced                                   : No

Text #2
ID                                       : 4
Format                                   : UTF-8
Codec ID                                 : S_TEXT/UTF8
Codec ID/Info                            : UTF-8 Plain Text
Duration                                 : 42 min 37 s
Bit rate                                 : 101 b/s
Frame rate                               : 0.399 FPS
Count of elements                        : 1020
Stream size                              : 31.6 KiB (0%)
Title                                    : SDH
Language                                 : English (US)
Default                                  : No
Forced                                   : No



Download
File Container: MKV
Video/Audio Codec: H264 (HIGH) EAC3
Video Resolution: 1280x720

1 Response to "[RR/NF/CU] NCIS Hawaii S03E08 Into Thin Air 720p AMZN WEB-DL DDP5 1 H 264-NTb (1GB)"
04/23/24
18:36:57
ReadyPlayerOne

Thank You

Please Login to post a comment.
If you don't have any account, please Register.
  • Subscribe my Feeds
  • Facebook
Encoding Queue:  x264  x265

Latest Episodes

Popular Movies and TV Shows

  • WWE NXT
  • The Feeling That the Time for Doing Something Has Passed
  • Elizabethan Express
  • 12 Strong
  • Law & Order: Organized Crime
  • Die Zweiflers
  • Furiosa: A Mad Max Saga
  • MasterChef Australia
  • Under the Bridge
  • Panchayat
  • Autoerotic
  • Tarot
  • Dark Matter
  • The Big Door Prize
  • Loot
  • Your Mother's Son
  • Mahal ko ang mahal mo
  • Civil War
  • The Bold and the Beautiful
  • The Simpsons
  • WWE Raw
  • The First Omen
  • This Beautiful Fantastic
  • Serbidoras
  • The Daily Show

Recent Comments

  • Bionicone: Yea this is not the Bluray version. This is another Cam. This thing should be taken down. Do not dow...
  • spiderspinner: Bud:The same thing started happening to me last night and I've used four different browsers yet they...
  • timt:

    Junk, CAM

  • upx:

    WARNING:This is NOT a BluRay rip. It's a CAMrip.

  • Bud: Is clicknupload borked for anyone else now, or is it just me? In recent months it's only worked in...
  • mentalityx:

    Rad bloke!

  • waanaabe: I hope someone follows through with the rest! also, did not check every post but hoping future ones ...
  • Demonz:

    Holy popups ClickNupload

  • rambaldi70:

    this release sort cut! 1h33m12 !
    imdb - 1h 54m

  • rambaldi70: This release the first bad source 1h33m12 - stop the play this release sort cut! 1h33m12 ! imdb - 1h...
  • rambaldi70:

    this release sort cut! 1h33m12 !
    imdb - 1h 54m

  • dilliboy: Will we ever see these RMTeam releases ever again? I hope they're not lost to the digital graveyard ...
  • kang:

    NitroFlare's link is missing...

  • kang:

    NitroFlare's link is missing...

  • tchamast:

    @Wrapt

    I've seen that too, don't know why.

  • Rafi85: Hi thx for the 14th season. Is it possible to reupload some episodes plz they were removed. These ar...
  • KubrickFan:

    Any possibility of a fresh link for this?

  • GubeShitemon: This is a different movie to the artwork version. Not the Dylan McDermott film but the Ben Affleck f...
  • drorsabi1:

    @admin
    Please add "My Adventures With Superman Season 2 "

  • Wrapt: Hahahaha yeah right make a liar out of me but I was referring to comments made about a movie or an e...

Archives