Sign Up   |   Sign In  
The Fall GuyBoy Kills WorldThe VeilSeize Them!Touken Ranbu Kai: Kyoden Moyuru HonnoujiWWE RawYoung SheldonClub ZeroAll AmericanStress PositionsBelow DeckShadow MagicBetter Call SaulThe Name of the RosePointlessThe SimpsonsTMZ Presents: The Downfall of DiddyDevil in the FleshS.W.A.T.TrackerThe EqualizerTales of Ordinary MadnessArthur the KingGolden KamuyBeacon 23

Announcements

04/22

2024

1

Comments

Not Dead Yet S02E01 Not Owning It Yet REPACK 720p DSNP WEB-DL DDP5 1 H 264-NTb
[RR/NF/CU]
Size: 536MB mkv H264 (HIGH) / EAC3  HD  1280x720

Not Dead Yet
File Information
[img]http://lookpic.com/cdn/i2/t/0422202402225388-1.jpg[/img]
[img]http://lookpic.com/cdn/i2/t/0422202402225388-2.jpg[/img]
[img]http://lookpic.com/cdn/i2/t/0422202402225388-3.jpg[/img]

General
Unique ID                                : 194005612018826006211977669140510859276 (0x91F41F2B7129861C210A59F23D2EE00C)
Complete name                            : Not.Dead.Yet.S02E01.Not.Owning.It.Yet.REPACK.720p.DSNP.WEB-DL.DDP5.1.H.264-NTb.mkv
Format                                   : Matroska
Format version                           : Version 4
File size                                : 536 MiB
Duration                                 : 21 min 33 s
Overall bit rate mode                    : Variable
Overall bit rate                         : 3 476 kb/s
Frame rate                               : 23.976 FPS
Writing application                      : mkvmerge v81.0 ('Milliontown') 64-bit
Writing library                          : libebml v1.4.4 + libmatroska v1.7.1

Video
ID                                       : 1
Format                                   : AVC
Format/Info                              : Advanced Video Codec
Format profile                           : High@L3.1
Format settings                          : CABAC / 4 Ref Frames
Format settings, CABAC                   : Yes
Format settings, Reference frames        : 4 frames
Codec ID                                 : V_MPEG4/ISO/AVC
Duration                                 : 21 min 33 s
Bit rate mode                            : Variable
Bit rate                                 : 2 830 kb/s
Maximum bit rate                         : 6 375 kb/s
Width                                    : 1 280 pixels
Height                                   : 720 pixels
Display aspect ratio                     : 16:9
Frame rate mode                          : Constant
Frame rate                               : 23.976 (24000/1001) FPS
Color space                              : YUV
Chroma subsampling                       : 4:2:0
Bit depth                                : 8 bits
Scan type                                : Progressive
Bits/(Pixel*Frame)                       : 0.128
Time code of first frame                 : 00:00:00:0000000000
Stream size                              : 436 MiB (81%)
Default                                  : Yes
Forced                                   : No
Color range                              : Limited
Color primaries                          : BT.709
Transfer characteristics                 : BT.709
Matrix coefficients                      : BT.709

Audio
ID                                       : 2
Format                                   : E-AC-3
Format/Info                              : Enhanced AC-3
Commercial name                          : Dolby Digital Plus
Codec ID                                 : A_EAC3
Duration                                 : 21 min 33 s
Bit rate mode                            : Constant
Bit rate                                 : 640 kb/s
Channel(s)                               : 6 channels
Channel layout                           : L R C LFE Ls Rs
Sampling rate                            : 48.0 kHz
Frame rate                               : 31.250 FPS (1536 SPF)
Compression mode                         : Lossy
Stream size                              : 98.7 MiB (18%)
Language                                 : English
Service kind                             : Complete Main
Default                                  : Yes
Forced                                   : No

Text #1
ID                                       : 3
Format                                   : UTF-8
Codec ID                                 : S_TEXT/UTF8
Codec ID/Info                            : UTF-8 Plain Text
Duration                                 : 21 min 21 s
Bit rate                                 : 115 b/s
Frame rate                               : 0.342 FPS
Count of elements                        : 438
Stream size                              : 18.1 KiB (0%)
Language                                 : English
Default                                  : No
Forced                                   : No

Text #2
ID                                       : 4
Format                                   : UTF-8
Codec ID                                 : S_TEXT/UTF8
Codec ID/Info                            : UTF-8 Plain Text
Duration                                 : 21 min 21 s
Bit rate                                 : 122 b/s
Frame rate                               : 0.353 FPS
Count of elements                        : 453
Stream size                              : 19.2 KiB (0%)
Title                                    : SDH
Language                                 : English
Default                                  : No
Forced                                   : No

Text #3
ID                                       : 5
Format                                   : UTF-8
Codec ID                                 : S_TEXT/UTF8
Codec ID/Info                            : UTF-8 Plain Text
Duration                                 : 21 min 28 s
Bit rate                                 : 101 b/s
Frame rate                               : 0.338 FPS
Count of elements                        : 435
Stream size                              : 15.9 KiB (0%)
Language                                 : Czech
Default                                  : No
Forced                                   : No

Text #4
ID                                       : 6
Format                                   : UTF-8
Codec ID                                 : S_TEXT/UTF8
Codec ID/Info                            : UTF-8 Plain Text
Duration                                 : 21 min 28 s
Bit rate                                 : 106 b/s
Frame rate                               : 0.312 FPS
Count of elements                        : 402
Stream size                              : 16.7 KiB (0%)
Language                                 : Danish
Default                                  : No
Forced                                   : No

Text #5
ID                                       : 7
Format                                   : UTF-8
Codec ID                                 : S_TEXT/UTF8
Codec ID/Info                            : UTF-8 Plain Text
Duration                                 : 21 min 26 s
Bit rate                                 : 108 b/s
Frame rate                               : 0.333 FPS
Count of elements                        : 429
Stream size                              : 17.1 KiB (0%)
Language                                 : German
Default                                  : No
Forced                                   : No

Text #6
ID                                       : 8
Format                                   : UTF-8
Codec ID                                 : S_TEXT/UTF8
Codec ID/Info                            : UTF-8 Plain Text
Duration                                 : 21 min 23 s
Bit rate                                 : 165 b/s
Frame rate                               : 0.331 FPS
Count of elements                        : 425
Stream size                              : 25.9 KiB (0%)
Language                                 : Greek
Default                                  : No
Forced                                   : No

Text #7
ID                                       : 9
Format                                   : UTF-8
Codec ID                                 : S_TEXT/UTF8
Codec ID/Info                            : UTF-8 Plain Text
Duration                                 : 21 min 28 s
Bit rate                                 : 99 b/s
Frame rate                               : 0.284 FPS
Count of elements                        : 366
Stream size                              : 15.6 KiB (0%)
Title                                    : Spanish (Latin America)
Language                                 : Spanish (Latin America)
Default                                  : No
Forced                                   : No

Text #8
ID                                       : 10
Format                                   : UTF-8
Codec ID                                 : S_TEXT/UTF8
Codec ID/Info                            : UTF-8 Plain Text
Duration                                 : 21 min 28 s
Bit rate                                 : 100 b/s
Frame rate                               : 0.307 FPS
Count of elements                        : 396
Stream size                              : 15.8 KiB (0%)
Title                                    : Spanish (Spain)
Language                                 : Spanish (ES)
Default                                  : No
Forced                                   : No

Text #9
ID                                       : 11
Format                                   : UTF-8
Codec ID                                 : S_TEXT/UTF8
Codec ID/Info                            : UTF-8 Plain Text
Duration                                 : 21 min 26 s
Bit rate                                 : 100 b/s
Frame rate                               : 0.331 FPS
Count of elements                        : 426
Stream size                              : 15.7 KiB (0%)
Language                                 : Finnish
Default                                  : No
Forced                                   : No

Text #10
ID                                       : 12
Format                                   : UTF-8
Codec ID                                 : S_TEXT/UTF8
Codec ID/Info                            : UTF-8 Plain Text
Duration                                 : 21 min 28 s
Bit rate                                 : 94 b/s
Frame rate                               : 0.345 FPS
Count of elements                        : 445
Stream size                              : 14.9 KiB (0%)
Language                                 : French (FR)
Default                                  : No
Forced                                   : No

Text #11
ID                                       : 13
Format                                   : UTF-8
Codec ID                                 : S_TEXT/UTF8
Codec ID/Info                            : UTF-8 Plain Text
Duration                                 : 21 min 28 s
Bit rate                                 : 106 b/s
Frame rate                               : 0.332 FPS
Count of elements                        : 428
Stream size                              : 16.8 KiB (0%)
Language                                 : Hungarian
Default                                  : No
Forced                                   : No

Text #12
ID                                       : 14
Format                                   : UTF-8
Codec ID                                 : S_TEXT/UTF8
Codec ID/Info                            : UTF-8 Plain Text
Duration                                 : 21 min 26 s
Bit rate                                 : 101 b/s
Frame rate                               : 0.345 FPS
Count of elements                        : 444
Stream size                              : 15.9 KiB (0%)
Language                                 : Italian
Default                                  : No
Forced                                   : No

Text #13
ID                                       : 15
Format                                   : UTF-8
Codec ID                                 : S_TEXT/UTF8
Codec ID/Info                            : UTF-8 Plain Text
Duration                                 : 21 min 28 s
Bit rate                                 : 85 b/s
Frame rate                               : 0.314 FPS
Count of elements                        : 405
Stream size                              : 13.4 KiB (0%)
Language                                 : Japanese
Default                                  : No
Forced                                   : No

Text #14
ID                                       : 16
Format                                   : UTF-8
Codec ID                                 : S_TEXT/UTF8
Codec ID/Info                            : UTF-8 Plain Text
Duration                                 : 21 min 28 s
Bit rate                                 : 119 b/s
Frame rate                               : 0.351 FPS
Count of elements                        : 452
Stream size                              : 18.7 KiB (0%)
Language                                 : Korean
Default                                  : No
Forced                                   : No

Text #15
ID                                       : 17
Format                                   : UTF-8
Codec ID                                 : S_TEXT/UTF8
Codec ID/Info                            : UTF-8 Plain Text
Duration                                 : 21 min 26 s
Bit rate                                 : 89 b/s
Frame rate                               : 0.284 FPS
Count of elements                        : 366
Stream size                              : 14.1 KiB (0%)
Language                                 : Dutch
Default                                  : No
Forced                                   : No

Text #16
ID                                       : 18
Format                                   : UTF-8
Codec ID                                 : S_TEXT/UTF8
Codec ID/Info                            : UTF-8 Plain Text
Duration                                 : 21 min 26 s
Bit rate                                 : 92 b/s
Frame rate                               : 0.297 FPS
Count of elements                        : 382
Stream size                              : 14.6 KiB (0%)
Language                                 : Norwegian
Default                                  : No
Forced                                   : No

Text #17
ID                                       : 19
Format                                   : UTF-8
Codec ID                                 : S_TEXT/UTF8
Codec ID/Info                            : UTF-8 Plain Text
Duration                                 : 21 min 26 s
Bit rate                                 : 97 b/s
Frame rate                               : 0.343 FPS
Count of elements                        : 441
Stream size                              : 15.3 KiB (0%)
Language                                 : Polish
Default                                  : No
Forced                                   : No

Text #18
ID                                       : 20
Format                                   : UTF-8
Codec ID                                 : S_TEXT/UTF8
Codec ID/Info                            : UTF-8 Plain Text
Duration                                 : 21 min 28 s
Bit rate                                 : 98 b/s
Frame rate                               : 0.329 FPS
Count of elements                        : 424
Stream size                              : 15.5 KiB (0%)
Title                                    : Portuguese (Brazil)
Language                                 : Portuguese (BR)
Default                                  : No
Forced                                   : No

Text #19
ID                                       : 21
Format                                   : UTF-8
Codec ID                                 : S_TEXT/UTF8
Codec ID/Info                            : UTF-8 Plain Text
Duration                                 : 21 min 26 s
Bit rate                                 : 101 b/s
Frame rate                               : 0.344 FPS
Count of elements                        : 443
Stream size                              : 15.9 KiB (0%)
Title                                    : Portuguese (Portugal)
Language                                 : Portuguese (PT)
Default                                  : No
Forced                                   : No

Text #20
ID                                       : 22
Format                                   : UTF-8
Codec ID                                 : S_TEXT/UTF8
Codec ID/Info                            : UTF-8 Plain Text
Duration                                 : 21 min 28 s
Bit rate                                 : 104 b/s
Frame rate                               : 0.263 FPS
Count of elements                        : 339
Stream size                              : 16.4 KiB (0%)
Language                                 : Romanian
Default                                  : No
Forced                                   : No

Text #21
ID                                       : 23
Format                                   : UTF-8
Codec ID                                 : S_TEXT/UTF8
Codec ID/Info                            : UTF-8 Plain Text
Duration                                 : 21 min 26 s
Bit rate                                 : 99 b/s
Frame rate                               : 0.335 FPS
Count of elements                        : 431
Stream size                              : 15.6 KiB (0%)
Language                                 : Slovak
Default                                  : No
Forced                                   : No

Text #22
ID                                       : 24
Format                                   : UTF-8
Codec ID                                 : S_TEXT/UTF8
Codec ID/Info                            : UTF-8 Plain Text
Duration                                 : 21 min 26 s
Bit rate                                 : 97 b/s
Frame rate                               : 0.313 FPS
Count of elements                        : 403
Stream size                              : 15.4 KiB (0%)
Language                                 : Swedish
Default                                  : No
Forced                                   : No

Text #23
ID                                       : 25
Format                                   : UTF-8
Codec ID                                 : S_TEXT/UTF8
Codec ID/Info                            : UTF-8 Plain Text
Duration                                 : 21 min 28 s
Bit rate                                 : 95 b/s
Frame rate                               : 0.349 FPS
Count of elements                        : 450
Stream size                              : 14.9 KiB (0%)
Language                                 : Chinese (Traditional)
Default                                  : No
Forced                                   : No



Download
File Container: MKV
Video/Audio Codec: H264 (HIGH) EAC3
Video Resolution: 1280x720

1 Response to "[RR/NF/CU] Not Dead Yet S02E01 Not Owning It Yet REPACK 720p DSNP WEB-DL DDP5 1 H 264-NTb (536MB)"
04/22/24
05:55:11
ReadyPlayerOne

Thank You

Please Login to post a comment.
If you don't have any account, please Register.
  • Subscribe my Feeds
  • Facebook
Encoding Queue:  x264  x265

Latest Episodes

Popular Movies and TV Shows

  • The Fall Guy
  • Boy Kills World
  • The Veil
  • Seize Them!
  • Touken Ranbu Kai: Kyoden Moyuru Honnouji
  • WWE Raw
  • Young Sheldon
  • Club Zero
  • All American
  • Stress Positions
  • Below Deck
  • Shadow Magic
  • Better Call Saul
  • The Name of the Rose
  • Pointless
  • The Simpsons
  • TMZ Presents: The Downfall of Diddy
  • Devil in the Flesh
  • S.W.A.T.
  • Tracker
  • The Equalizer
  • Tales of Ordinary Madness
  • Arthur the King
  • Golden Kamuy
  • Beacon 23

Recent Comments

  • PROFessorMorrynarty: Would it be possible to upload 'Lego masters Australia' Series 6 Episode 6 Please? It's the only one...
  • mentalityx:

    Thx mate.

  • Bud: Is the search engine down for everyone, or just me? It just says 'You're forbidden!' whenever I lo...
  • 23d1:

    not episode 4 it is episode 3

  • 23d1:

    not episode 4 it is episode 3

  • 23d1:

    not episode 4 it is episode 3

  • 23d1:

    not episode 4 it is episode 3

  • aaroz88:

    Trimas!!

  • mptoo: I don't often ask this, infact this would be the first time, but I don't suppose there is any chance...
  • Cinque_Persson:

    btw:
    quote /quote
    is broken

  • gabrielsyme:

    Sorry but where is the clicknupload link?

  • mike1204:

    Is this episode doomed??? The RMX avi version is only 12 minutes long!!!

Archives