Sign Up   |   Sign In  
The EqualizerThe SympathizerTrackerThe Baby DaddyBob's BurgersThe SimpsonsKrapopolisAccidentThe Tunnel to Summer, the Exit of GoodbyesThe Bank ShotBeacon 23Blue BloodsInterview with the VampireDawn of the Planet of the ApesChallengersPhil Tippett: Mad Dreams and MonstersSaturday Night LiveYoung SheldonStar Trek: DiscoveryGodzilla x Kong: The New EmpireForce of Nature: The Dry 2Another BodyS.W.A.T.Doctor WhoSugar

Announcements

04/18

2024

1

Comments

Not Dead Yet S02E08 Not You Yet 720p DSNP WEB-DL DDP5 1 H 264-FLUX
[RR/NF/CU]
Size: 517MB mkv H264 (HIGH) / EAC3  HD  1280x720

Not Dead Yet
File Information
[img]http://lookpic.com/cdn/i2/t/0418202411415836-1.jpg[/img]
[img]http://lookpic.com/cdn/i2/t/0418202411415836-2.jpg[/img]
[img]http://lookpic.com/cdn/i2/t/0418202411415836-3.jpg[/img]

General
Unique ID                                : 56257193681816894255590836092361728825 (0x2A52BDCBBA7F9DEBC6F6CDD9750F6339)
Complete name                            : Not.Dead.Yet.S02E08.Not.You.Yet.720p.DSNP.WEB-DL.DDP5.1.H.264-FLUX.mkv
Format                                   : Matroska
Format version                           : Version 4
File size                                : 517 MiB
Duration                                 : 21 min 31 s
Overall bit rate mode                    : Variable
Overall bit rate                         : 3 359 kb/s
Frame rate                               : 23.976 FPS
Writing application                      : mkvmerge v83.0 ('Circle Of Friends') 64-bit
Writing library                          : libebml v1.4.5 + libmatroska v1.7.1

Video
ID                                       : 1
Format                                   : AVC
Format/Info                              : Advanced Video Codec
Format profile                           : High@L3.1
Format settings                          : CABAC / 4 Ref Frames
Format settings, CABAC                   : Yes
Format settings, Reference frames        : 4 frames
Codec ID                                 : V_MPEG4/ISO/AVC
Duration                                 : 21 min 31 s
Bit rate mode                            : Variable
Bit rate                                 : 3 101 kb/s
Maximum bit rate                         : 6 375 kb/s
Width                                    : 1 280 pixels
Height                                   : 720 pixels
Display aspect ratio                     : 16:9
Frame rate mode                          : Constant
Frame rate                               : 23.976 (24000/1001) FPS
Color space                              : YUV
Chroma subsampling                       : 4:2:0
Bit depth                                : 8 bits
Scan type                                : Progressive
Bits/(Pixel*Frame)                       : 0.140
Time code of first frame                 : 00:00:00:0000000000
Stream size                              : 477 MiB (92%)
Language                                 : English
Default                                  : Yes
Forced                                   : No
Color range                              : Limited
Color primaries                          : BT.709
Transfer characteristics                 : BT.709
Matrix coefficients                      : BT.709

Audio
ID                                       : 2
Format                                   : E-AC-3
Format/Info                              : Enhanced AC-3
Commercial name                          : Dolby Digital Plus
Codec ID                                 : A_EAC3
Duration                                 : 21 min 31 s
Bit rate mode                            : Constant
Bit rate                                 : 256 kb/s
Channel(s)                               : 6 channels
Channel layout                           : L R C LFE Ls Rs
Sampling rate                            : 48.0 kHz
Frame rate                               : 31.250 FPS (1536 SPF)
Compression mode                         : Lossy
Stream size                              : 39.4 MiB (8%)
Language                                 : English
Service kind                             : Complete Main
Default                                  : Yes
Forced                                   : No

Text #1
ID                                       : 3
Format                                   : UTF-8
Codec ID                                 : S_TEXT/UTF8
Codec ID/Info                            : UTF-8 Plain Text
Duration                                 : 21 min 21 s
Bit rate                                 : 121 b/s
Frame rate                               : 0.435 FPS
Count of elements                        : 558
Stream size                              : 18.9 KiB (0%)
Language                                 : English
Default                                  : No
Forced                                   : No

Text #2
ID                                       : 4
Format                                   : UTF-8
Codec ID                                 : S_TEXT/UTF8
Codec ID/Info                            : UTF-8 Plain Text
Duration                                 : 21 min 21 s
Bit rate                                 : 125 b/s
Frame rate                               : 0.459 FPS
Count of elements                        : 589
Stream size                              : 19.7 KiB (0%)
Title                                    : SDH
Language                                 : English
Default                                  : No
Forced                                   : No



Download
File Container: MKV
Video/Audio Codec: H264 (HIGH) EAC3
Video Resolution: 1280x720

1 Response to "[RR/NF/CU] Not Dead Yet S02E08 Not You Yet 720p DSNP WEB-DL DDP5 1 H 264-FLUX (517MB)"
04/18/24
13:46:51
ReadyPlayerOne

Thank You

Please Login to post a comment.
If you don't have any account, please Register.
  • Subscribe my Feeds
  • Facebook
Encoding Queue:  x264  x265

Latest Episodes

Popular Movies and TV Shows

  • The Equalizer
  • The Sympathizer
  • Tracker
  • The Baby Daddy
  • Bob's Burgers
  • The Simpsons
  • Krapopolis
  • Accident
  • The Tunnel to Summer, the Exit of Goodbyes
  • The Bank Shot
  • Beacon 23
  • Blue Bloods
  • Interview with the Vampire
  • Dawn of the Planet of the Apes
  • Challengers
  • Phil Tippett: Mad Dreams and Monsters
  • Saturday Night Live
  • Young Sheldon
  • Star Trek: Discovery
  • Godzilla x Kong: The New Empire
  • Force of Nature: The Dry 2
  • Another Body
  • S.W.A.T.
  • Doctor Who
  • Sugar

Recent Comments

  • 23d1:

    not episode 4 it is episode 3

  • 23d1:

    not episode 4 it is episode 3

  • 23d1:

    not episode 4 it is episode 3

  • 23d1:

    not episode 4 it is episode 3

  • aaroz88:

    Trimas!!

  • mptoo: I don't often ask this, infact this would be the first time, but I don't suppose there is any chance...
  • Cinque_Persson:

    btw:
    quote /quote
    is broken

  • gabrielsyme:

    Sorry but where is the clicknupload link?

  • mike1204:

    Is this episode doomed??? The RMX avi version is only 12 minutes long!!!

  • waanaabe:

    Could PUSHING DAISES kindly be upoaded to CU? THANKS!

  • mentalityx:

    Thx bloke.

Archives