Sign Up   |   Sign In  
MasterChef AustraliaThe ListenerCivil WarWhen Calls the HeartCry of a ProstituteThe Brokenwood MysteriesThe SympathizerBack to BlackThe EqualizerFlesh WoundsFuriosa: A Mad Max SagaSullivan's CrossingBeacon 23The Jinx: The Life and Deaths of Robert DurstWWE Smackdown!DamagedDead WrongSongs of EarthAbbott ElementaryThe RookieStar Trek: DiscoveryGaga Chromatica BallAtlasBob Marley: One LoveThe Daily Show

Announcements

04/20

2024

No

Comments

Platonic 2023 S01E01 Pilot 1080p ATVP WEB-DL DDP5 1 H 264-NTb
[RR/NF]
Size: 2.3GB mkv H264 (HIGH) / EAC3  HD  1920x960

Platonic
File Information
[img]http://lookpic.com/cdn/i2/t/0420202412353551-1.jpg[/img]
[img]http://lookpic.com/cdn/i2/t/0420202412353551-2.jpg[/img]
[img]http://lookpic.com/cdn/i2/t/0420202412353551-3.jpg[/img]

General
Unique ID                                : 286727570798335011279522765298062215339 (0xD7B5B8B0D4285D71624FB33A31C248AB)
Complete name                            : Platonic 2023 S01E01 Pilot 1080p ATVP WEB-DL DDP5 1 H 264-NTb.mkv
Format                                   : Matroska
Format version                           : Version 4
File size                                : 2.35 GiB
Duration                                 : 31 min 23 s
Overall bit rate                         : 10.7 Mb/s
Frame rate                               : 23.976 FPS
Writing application                      : mkvmerge v75.0.0 ('Goliath') 64-bit
Writing library                          : libebml v1.4.4 + libmatroska v1.7.1

Video
ID                                       : 1
Format                                   : AVC
Format/Info                              : Advanced Video Codec
Format profile                           : High@L4
Format settings                          : CABAC / 4 Ref Frames
Format settings, CABAC                   : Yes
Format settings, Reference frames        : 4 frames
Codec ID                                 : V_MPEG4/ISO/AVC
Duration                                 : 31 min 23 s
Bit rate                                 : 9 940 kb/s
Width                                    : 1 920 pixels
Height                                   : 960 pixels
Display aspect ratio                     : 2.000
Frame rate mode                          : Constant
Frame rate                               : 23.976 (24000/1001) FPS
Color space                              : YUV
Chroma subsampling                       : 4:2:0
Bit depth                                : 8 bits
Scan type                                : Progressive
Bits/(Pixel*Frame)                       : 0.225
Stream size                              : 2.18 GiB (93%)
Default                                  : Yes
Forced                                   : No
Color range                              : Limited
Color primaries                          : BT.709
Transfer characteristics                 : BT.709
Matrix coefficients                      : BT.709

Audio
ID                                       : 2
Format                                   : E-AC-3 JOC
Format/Info                              : Enhanced AC-3 with Joint Object Coding
Commercial name                          : Dolby Digital Plus with Dolby Atmos
Codec ID                                 : A_EAC3
Duration                                 : 31 min 23 s
Bit rate mode                            : Constant
Bit rate                                 : 768 kb/s
Channel(s)                               : 6 channels
Channel layout                           : L R C LFE Ls Rs
Sampling rate                            : 48.0 kHz
Frame rate                               : 31.250 FPS (1536 SPF)
Compression mode                         : Lossy
Stream size                              : 172 MiB (7%)
Language                                 : English
Service kind                             : Complete Main
Default                                  : Yes
Forced                                   : No
Complexity index                         : 16
Number of dynamic objects                : 15
Bed channel count                        : 1 channel
Bed channel configuration                : LFE

Text #1
ID                                       : 3
Format                                   : UTF-8
Codec ID                                 : S_TEXT/UTF8
Codec ID/Info                            : UTF-8 Plain Text
Bit rate                                 : 0 b/s
Count of elements                        : 0
Stream size                              : 0.00 Byte (0%)
Title                                    : Forced
Language                                 : English
Default                                  : Yes
Forced                                   : Yes

Text #2
ID                                       : 4
Format                                   : UTF-8
Codec ID                                 : S_TEXT/UTF8
Codec ID/Info                            : UTF-8 Plain Text
Duration                                 : 30 min 0 s
Bit rate                                 : 116 b/s
Frame rate                               : 0.358 FPS
Count of elements                        : 645
Stream size                              : 25.6 KiB (0%)
Language                                 : English
Default                                  : No
Forced                                   : No

Text #3
ID                                       : 5
Format                                   : UTF-8
Codec ID                                 : S_TEXT/UTF8
Codec ID/Info                            : UTF-8 Plain Text
Duration                                 : 30 min 4 s
Bit rate                                 : 127 b/s
Frame rate                               : 0.375 FPS
Count of elements                        : 677
Stream size                              : 28.2 KiB (0%)
Title                                    : SDH
Language                                 : English
Default                                  : No
Forced                                   : No

Text #4
ID                                       : 6
Format                                   : UTF-8
Codec ID                                 : S_TEXT/UTF8
Codec ID/Info                            : UTF-8 Plain Text
Duration                                 : 31 min 4 s
Bit rate                                 : 166 b/s
Frame rate                               : 0.345 FPS
Count of elements                        : 644
Stream size                              : 37.9 KiB (0%)
Language                                 : Arabic
Default                                  : No
Forced                                   : No

Text #5
ID                                       : 7
Format                                   : UTF-8
Codec ID                                 : S_TEXT/UTF8
Codec ID/Info                            : UTF-8 Plain Text
Duration                                 : 31 min 4 s
Bit rate                                 : 133 b/s
Frame rate                               : 0.274 FPS
Count of elements                        : 511
Stream size                              : 30.3 KiB (0%)
Language                                 : Bulgarian
Default                                  : No
Forced                                   : No

Text #6
ID                                       : 8
Format                                   : UTF-8
Codec ID                                 : S_TEXT/UTF8
Codec ID/Info                            : UTF-8 Plain Text
Duration                                 : 31 min 4 s
Bit rate                                 : 99 b/s
Frame rate                               : 0.351 FPS
Count of elements                        : 654
Stream size                              : 22.6 KiB (0%)
Title                                    : Chinese (Simplified)
Language                                 : Mandarin (Hans)
Default                                  : No
Forced                                   : No

Text #7
ID                                       : 9
Format                                   : UTF-8
Codec ID                                 : S_TEXT/UTF8
Codec ID/Info                            : UTF-8 Plain Text
Duration                                 : 31 min 4 s
Bit rate                                 : 95 b/s
Frame rate                               : 0.351 FPS
Count of elements                        : 655
Stream size                              : 21.8 KiB (0%)
Title                                    : Chinese (Traditional)
Language                                 : Mandarin (Hant)
Default                                  : No
Forced                                   : No

Text #8
ID                                       : 10
Format                                   : UTF-8
Codec ID                                 : S_TEXT/UTF8
Codec ID/Info                            : UTF-8 Plain Text
Duration                                 : 31 min 4 s
Bit rate                                 : 91 b/s
Frame rate                               : 0.315 FPS
Count of elements                        : 588
Stream size                              : 20.8 KiB (0%)
Language                                 : Czech
Default                                  : No
Forced                                   : No

Text #9
ID                                       : 11
Format                                   : UTF-8
Codec ID                                 : S_TEXT/UTF8
Codec ID/Info                            : UTF-8 Plain Text
Duration                                 : 31 min 4 s
Bit rate                                 : 95 b/s
Frame rate                               : 0.297 FPS
Count of elements                        : 554
Stream size                              : 21.8 KiB (0%)
Language                                 : Danish
Default                                  : No
Forced                                   : No

Text #10
ID                                       : 12
Format                                   : UTF-8
Codec ID                                 : S_TEXT/UTF8
Codec ID/Info                            : UTF-8 Plain Text
Duration                                 : 31 min 10 s
Bit rate                                 : 99 b/s
Frame rate                               : 0.351 FPS
Count of elements                        : 656
Stream size                              : 22.8 KiB (0%)
Language                                 : German
Default                                  : No
Forced                                   : No

Text #11
ID                                       : 13
Format                                   : UTF-8
Codec ID                                 : S_TEXT/UTF8
Codec ID/Info                            : UTF-8 Plain Text
Duration                                 : 31 min 4 s
Bit rate                                 : 163 b/s
Frame rate                               : 0.334 FPS
Count of elements                        : 622
Stream size                              : 37.3 KiB (0%)
Language                                 : Greek
Default                                  : No
Forced                                   : No

Text #12
ID                                       : 14
Format                                   : UTF-8
Codec ID                                 : S_TEXT/UTF8
Codec ID/Info                            : UTF-8 Plain Text
Duration                                 : 31 min 4 s
Bit rate                                 : 102 b/s
Frame rate                               : 0.350 FPS
Count of elements                        : 652
Stream size                              : 23.3 KiB (0%)
Title                                    : Spanish (Latin America)
Language                                 : Spanish (Latin America)
Default                                  : No
Forced                                   : No

Text #13
ID                                       : 15
Format                                   : UTF-8
Codec ID                                 : S_TEXT/UTF8
Codec ID/Info                            : UTF-8 Plain Text
Duration                                 : 31 min 10 s
Bit rate                                 : 99 b/s
Frame rate                               : 0.351 FPS
Count of elements                        : 656
Stream size                              : 22.7 KiB (0%)
Title                                    : Spanish (Spain)
Language                                 : Spanish (ES)
Default                                  : No
Forced                                   : No

Text #14
ID                                       : 16
Format                                   : UTF-8
Codec ID                                 : S_TEXT/UTF8
Codec ID/Info                            : UTF-8 Plain Text
Duration                                 : 31 min 4 s
Bit rate                                 : 97 b/s
Frame rate                               : 0.321 FPS
Count of elements                        : 598
Stream size                              : 22.3 KiB (0%)
Language                                 : Estonian
Default                                  : No
Forced                                   : No

Text #15
ID                                       : 17
Format                                   : UTF-8
Codec ID                                 : S_TEXT/UTF8
Codec ID/Info                            : UTF-8 Plain Text
Duration                                 : 31 min 4 s
Bit rate                                 : 98 b/s
Frame rate                               : 0.340 FPS
Count of elements                        : 633
Stream size                              : 22.4 KiB (0%)
Language                                 : Finnish
Default                                  : No
Forced                                   : No

Text #16
ID                                       : 18
Format                                   : UTF-8
Codec ID                                 : S_TEXT/UTF8
Codec ID/Info                            : UTF-8 Plain Text
Duration                                 : 31 min 1 s
Bit rate                                 : 82 b/s
Frame rate                               : 0.333 FPS
Count of elements                        : 620
Stream size                              : 18.7 KiB (0%)
Title                                    : French (Canada)
Language                                 : French (CA)
Default                                  : No
Forced                                   : No

Text #17
ID                                       : 19
Format                                   : UTF-8
Codec ID                                 : S_TEXT/UTF8
Codec ID/Info                            : UTF-8 Plain Text
Duration                                 : 31 min 1 s
Bit rate                                 : 82 b/s
Frame rate                               : 0.332 FPS
Count of elements                        : 619
Stream size                              : 18.7 KiB (0%)
Title                                    : French (France)
Language                                 : French (FR)
Default                                  : No
Forced                                   : No

Text #18
ID                                       : 20
Format                                   : UTF-8
Codec ID                                 : S_TEXT/UTF8
Codec ID/Info                            : UTF-8 Plain Text
Duration                                 : 31 min 4 s
Bit rate                                 : 143 b/s
Frame rate                               : 0.351 FPS
Count of elements                        : 654
Stream size                              : 32.7 KiB (0%)
Language                                 : Hebrew
Default                                  : No
Forced                                   : No

Text #19
ID                                       : 21
Format                                   : UTF-8
Codec ID                                 : S_TEXT/UTF8
Codec ID/Info                            : UTF-8 Plain Text
Duration                                 : 31 min 4 s
Bit rate                                 : 287 b/s
Frame rate                               : 0.351 FPS
Count of elements                        : 655
Stream size                              : 65.5 KiB (0%)
Language                                 : Hindi
Default                                  : No
Forced                                   : No

Text #20
ID                                       : 22
Format                                   : UTF-8
Codec ID                                 : S_TEXT/UTF8
Codec ID/Info                            : UTF-8 Plain Text
Duration                                 : 31 min 4 s
Bit rate                                 : 106 b/s
Frame rate                               : 0.351 FPS
Count of elements                        : 655
Stream size                              : 24.2 KiB (0%)
Language                                 : Hungarian
Default                                  : No
Forced                                   : No

Text #21
ID                                       : 23
Format                                   : UTF-8
Codec ID                                 : S_TEXT/UTF8
Codec ID/Info                            : UTF-8 Plain Text
Duration                                 : 31 min 4 s
Bit rate                                 : 109 b/s
Frame rate                               : 0.349 FPS
Count of elements                        : 650
Stream size                              : 24.8 KiB (0%)
Language                                 : Indonesian
Default                                  : No
Forced                                   : No

Text #22
ID                                       : 24
Format                                   : UTF-8
Codec ID                                 : S_TEXT/UTF8
Codec ID/Info                            : UTF-8 Plain Text
Duration                                 : 31 min 10 s
Bit rate                                 : 115 b/s
Frame rate                               : 0.345 FPS
Count of elements                        : 646
Stream size                              : 26.4 KiB (0%)
Language                                 : Italian
Default                                  : No
Forced                                   : No

Text #23
ID                                       : 25
Format                                   : UTF-8
Codec ID                                 : S_TEXT/UTF8
Codec ID/Info                            : UTF-8 Plain Text
Duration                                 : 31 min 10 s
Bit rate                                 : 72 b/s
Frame rate                               : 0.333 FPS
Count of elements                        : 622
Stream size                              : 16.6 KiB (0%)
Language                                 : Japanese
Default                                  : No
Forced                                   : No

Text #24
ID                                       : 26
Format                                   : UTF-8
Codec ID                                 : S_TEXT/UTF8
Codec ID/Info                            : UTF-8 Plain Text
Duration                                 : 31 min 4 s
Bit rate                                 : 112 b/s
Frame rate                               : 0.351 FPS
Count of elements                        : 655
Stream size                              : 25.5 KiB (0%)
Language                                 : Korean
Default                                  : No
Forced                                   : No

Text #25
ID                                       : 27
Format                                   : UTF-8
Codec ID                                 : S_TEXT/UTF8
Codec ID/Info                            : UTF-8 Plain Text
Duration                                 : 31 min 4 s
Bit rate                                 : 106 b/s
Frame rate                               : 0.348 FPS
Count of elements                        : 648
Stream size                              : 24.3 KiB (0%)
Language                                 : Lithuanian
Default                                  : No
Forced                                   : No

Text #26
ID                                       : 28
Format                                   : UTF-8
Codec ID                                 : S_TEXT/UTF8
Codec ID/Info                            : UTF-8 Plain Text
Duration                                 : 31 min 4 s
Bit rate                                 : 107 b/s
Frame rate                               : 0.346 FPS
Count of elements                        : 646
Stream size                              : 24.4 KiB (0%)
Language                                 : Latvian
Default                                  : No
Forced                                   : No

Text #27
ID                                       : 29
Format                                   : UTF-8
Codec ID                                 : S_TEXT/UTF8
Codec ID/Info                            : UTF-8 Plain Text
Duration                                 : 31 min 4 s
Bit rate                                 : 106 b/s
Frame rate                               : 0.349 FPS
Count of elements                        : 651
Stream size                              : 24.3 KiB (0%)
Language                                 : Malay
Default                                  : No
Forced                                   : No

Text #28
ID                                       : 30
Format                                   : UTF-8
Codec ID                                 : S_TEXT/UTF8
Codec ID/Info                            : UTF-8 Plain Text
Duration                                 : 31 min 4 s
Bit rate                                 : 84 b/s
Frame rate                               : 0.268 FPS
Count of elements                        : 500
Stream size                              : 19.3 KiB (0%)
Language                                 : Dutch
Default                                  : No
Forced                                   : No

Text #29
ID                                       : 31
Format                                   : UTF-8
Codec ID                                 : S_TEXT/UTF8
Codec ID/Info                            : UTF-8 Plain Text
Duration                                 : 31 min 4 s
Bit rate                                 : 91 b/s
Frame rate                               : 0.297 FPS
Count of elements                        : 554
Stream size                              : 20.8 KiB (0%)
Language                                 : Norwegian
Default                                  : No
Forced                                   : No

Text #30
ID                                       : 32
Format                                   : UTF-8
Codec ID                                 : S_TEXT/UTF8
Codec ID/Info                            : UTF-8 Plain Text
Duration                                 : 31 min 4 s
Bit rate                                 : 89 b/s
Frame rate                               : 0.324 FPS
Count of elements                        : 605
Stream size                              : 20.4 KiB (0%)
Language                                 : Polish
Default                                  : No
Forced                                   : No

Text #31
ID                                       : 33
Format                                   : UTF-8
Codec ID                                 : S_TEXT/UTF8
Codec ID/Info                            : UTF-8 Plain Text
Duration                                 : 31 min 4 s
Bit rate                                 : 104 b/s
Frame rate                               : 0.344 FPS
Count of elements                        : 642
Stream size                              : 23.9 KiB (0%)
Title                                    : Portuguese
Language                                 : Portuguese
Default                                  : No
Forced                                   : No

Text #32
ID                                       : 34
Format                                   : UTF-8
Codec ID                                 : S_TEXT/UTF8
Codec ID/Info                            : UTF-8 Plain Text
Duration                                 : 31 min 4 s
Bit rate                                 : 95 b/s
Frame rate                               : 0.344 FPS
Count of elements                        : 642
Stream size                              : 21.8 KiB (0%)
Title                                    : Portuguese (Brazil)
Language                                 : Portuguese (BR)
Default                                  : No
Forced                                   : No

Text #33
ID                                       : 35
Format                                   : UTF-8
Codec ID                                 : S_TEXT/UTF8
Codec ID/Info                            : UTF-8 Plain Text
Duration                                 : 31 min 10 s
Bit rate                                 : 149 b/s
Frame rate                               : 0.351 FPS
Count of elements                        : 656
Stream size                              : 34.2 KiB (0%)
Language                                 : Russian
Default                                  : No
Forced                                   : No

Text #34
ID                                       : 36
Format                                   : UTF-8
Codec ID                                 : S_TEXT/UTF8
Codec ID/Info                            : UTF-8 Plain Text
Duration                                 : 31 min 4 s
Bit rate                                 : 96 b/s
Frame rate                               : 0.346 FPS
Count of elements                        : 646
Stream size                              : 21.9 KiB (0%)
Language                                 : Slovak
Default                                  : No
Forced                                   : No

Text #35
ID                                       : 37
Format                                   : UTF-8
Codec ID                                 : S_TEXT/UTF8
Codec ID/Info                            : UTF-8 Plain Text
Duration                                 : 31 min 4 s
Bit rate                                 : 79 b/s
Frame rate                               : 0.339 FPS
Count of elements                        : 632
Stream size                              : 18.2 KiB (0%)
Language                                 : Slovenian
Default                                  : No
Forced                                   : No

Text #36
ID                                       : 38
Format                                   : UTF-8
Codec ID                                 : S_TEXT/UTF8
Codec ID/Info                            : UTF-8 Plain Text
Duration                                 : 31 min 4 s
Bit rate                                 : 104 b/s
Frame rate                               : 0.329 FPS
Count of elements                        : 614
Stream size                              : 23.9 KiB (0%)
Language                                 : Swedish
Default                                  : No
Forced                                   : No

Text #37
ID                                       : 39
Format                                   : UTF-8
Codec ID                                 : S_TEXT/UTF8
Codec ID/Info                            : UTF-8 Plain Text
Duration                                 : 31 min 4 s
Bit rate                                 : 340 b/s
Frame rate                               : 0.351 FPS
Count of elements                        : 654
Stream size                              : 77.5 KiB (0%)
Language                                 : Tamil
Default                                  : No
Forced                                   : No

Text #38
ID                                       : 40
Format                                   : UTF-8
Codec ID                                 : S_TEXT/UTF8
Codec ID/Info                            : UTF-8 Plain Text
Duration                                 : 31 min 4 s
Bit rate                                 : 318 b/s
Frame rate                               : 0.351 FPS
Count of elements                        : 655
Stream size                              : 72.4 KiB (0%)
Language                                 : Telugu
Default                                  : No
Forced                                   : No

Text #39
ID                                       : 41
Format                                   : UTF-8
Codec ID                                 : S_TEXT/UTF8
Codec ID/Info                            : UTF-8 Plain Text
Duration                                 : 31 min 4 s
Bit rate                                 : 248 b/s
Frame rate                               : 0.351 FPS
Count of elements                        : 654
Stream size                              : 56.6 KiB (0%)
Language                                 : Thai
Default                                  : No
Forced                                   : No

Text #40
ID                                       : 42
Format                                   : UTF-8
Codec ID                                 : S_TEXT/UTF8
Codec ID/Info                            : UTF-8 Plain Text
Duration                                 : 31 min 4 s
Bit rate                                 : 106 b/s
Frame rate                               : 0.349 FPS
Count of elements                        : 651
Stream size                              : 24.2 KiB (0%)
Language                                 : Turkish
Default                                  : No
Forced                                   : No

Text #41
ID                                       : 43
Format                                   : UTF-8
Codec ID                                 : S_TEXT/UTF8
Codec ID/Info                            : UTF-8 Plain Text
Duration                                 : 31 min 4 s
Bit rate                                 : 154 b/s
Frame rate                               : 0.351 FPS
Count of elements                        : 655
Stream size                              : 35.1 KiB (0%)
Language                                 : Ukrainian
Default                                  : No
Forced                                   : No

Text #42
ID                                       : 44
Format                                   : UTF-8
Codec ID                                 : S_TEXT/UTF8
Codec ID/Info                            : UTF-8 Plain Text
Duration                                 : 31 min 4 s
Bit rate                                 : 137 b/s
Frame rate                               : 0.352 FPS
Count of elements                        : 656
Stream size                              : 31.2 KiB (0%)
Language                                 : Vietnamese
Default                                  : No
Forced                                   : No

Text #43
ID                                       : 45
Format                                   : UTF-8
Codec ID                                 : S_TEXT/UTF8
Codec ID/Info                            : UTF-8 Plain Text
Duration                                 : 31 min 4 s
Bit rate                                 : 88 b/s
Frame rate                               : 0.351 FPS
Count of elements                        : 655
Stream size                              : 20.2 KiB (0%)
Title                                    : Cantonese (Traditional)
Language                                 : Cantonese (Hant)
Default                                  : No
Forced                                   : No



Download
File Container: MKV
Video/Audio Codec: H264 (HIGH) EAC3
Video Resolution: 1920x960
Please Login to post a comment.
If you don't have any account, please Register.
  • Subscribe my Feeds
  • Facebook
Encoding Queue:  x264  x265

Latest Episodes

Popular Movies and TV Shows

  • MasterChef Australia
  • The Listener
  • Civil War
  • When Calls the Heart
  • Cry of a Prostitute
  • The Brokenwood Mysteries
  • The Sympathizer
  • Back to Black
  • The Equalizer
  • Flesh Wounds
  • Furiosa: A Mad Max Saga
  • Sullivan's Crossing
  • Beacon 23
  • The Jinx: The Life and Deaths of Robert Durst
  • WWE Smackdown!
  • Damaged
  • Dead Wrong
  • Songs of Earth
  • Abbott Elementary
  • The Rookie
  • Star Trek: Discovery
  • Gaga Chromatica Ball
  • Atlas
  • Bob Marley: One Love
  • The Daily Show

Recent Comments

  • dilliboy: Will we ever see these RMTeam releases ever again? I hope they're not lost to the digital graveyard ...
  • kang:

    NitroFlare's link is missing...

  • kang:

    NitroFlare's link is missing...

  • Rafi85: Hi thx for the 14th season. Is it possible to reupload some episodes plz they were removed. These ar...
  • KubrickFan:

    Any possibility of a fresh link for this?

  • GubeShitemon: This is a different movie to the artwork version. Not the Dylan McDermott film but the Ben Affleck f...
  • Wrapt: Hahahaha yeah right make a liar out of me but I was referring to comments made about a movie or an e...
  • Wrapt: Comments are not always appearing in the Recent Comments list after submitting a comment any reason ...
  • waanaabe:

    warning: speaks German Swedish and French for those without English subs...

  • spiker1961:

    The audio on this is a commentary track, not the actual film audio.

  • spiker1961:

    The audio on this is a commentary track, not the film audio.

  • DuranDuran: The MS PAT show - - Does anyone have BOTH the MS PAT show (SEASON 4) & (SEASON 3) that just cam...
  • newuser:

    need english subtitles

  • Demonz:

    WTH is this

    NO season info and parts 1-13

  • meyat74:

    please add if possible new episodes 5-6

  • DuranDuran: THE MS PAT show = Does anyone have BOTH the MS PAT show (SEASON 3)-and- (SEASON 4) that just came ou...
  • big_ralphie: Just sitting down to watch and, yes there are subtitles...in ITALIAN ONLY. ENGLISH subs might be hel...

Archives