Sign Up   |   Sign In  
FBI: Most WantedFBIFBI: InternationalGods of EgyptMR-9: Do or DieThe Big Door PrizeUnder the BridgeLootDrive-Away DollsHanky PankyAccidental TexanShogunMonkey ManArthur the KingNCISThe NeighborhoodMy MercuryNCIS: Hawai'iBob Hearts AbisholaThe SimpsonsDowntown OwlAftermathOne LifeTrackerThe Sympathizer

Announcements

03/28

2024

1

Comments

Resident Alien S03E07 Here Comes My Baby 720p AMZN WEB-DL DDP5 1 H 264-NTb
[RR/NF/CU]
Size: 1.2GB mkv H264 (HIGH) / EAC3  HD  1280x720

Resident Alien
File Information
[img]http://lookpic.com/cdn/i2/t/0328202413543696-1.jpg[/img]
[img]http://lookpic.com/cdn/i2/t/0328202413543696-2.jpg[/img]
[img]http://lookpic.com/cdn/i2/t/0328202413543696-3.jpg[/img]

General
Unique ID                                : 138830693152790506267303268266175009190 (0x6871D1A45E16AD08E65EF0FF108E91A6)
Complete name                            : Resident Alien S03E07 Here Comes My Baby 720p AMZN WEB-DL DDP5 1 H 264-NTb.mkv
Format                                   : Matroska
Format version                           : Version 4
File size                                : 1.22 GiB
Duration                                 : 45 min 1 s
Overall bit rate                         : 3 887 kb/s
Frame rate                               : 23.976 FPS
Writing application                      : mkvmerge v81.0 ('Milliontown') 64-bit
Writing library                          : libebml v1.4.4 + libmatroska v1.7.1

Video
ID                                       : 1
Format                                   : AVC
Format/Info                              : Advanced Video Codec
Format profile                           : High@L3.1
Format settings                          : CABAC / 4 Ref Frames
Format settings, CABAC                   : Yes
Format settings, Reference frames        : 4 frames
Codec ID                                 : V_MPEG4/ISO/AVC
Duration                                 : 45 min 1 s
Bit rate mode                            : Constant
Bit rate                                 : 3 245 kb/s
Nominal bit rate                         : 6 000 kb/s
Width                                    : 1 280 pixels
Height                                   : 720 pixels
Display aspect ratio                     : 16:9
Frame rate mode                          : Constant
Frame rate                               : 23.976 (24000/1001) FPS
Color space                              : YUV
Chroma subsampling                       : 4:2:0
Bit depth                                : 8 bits
Scan type                                : Progressive
Bits/(Pixel*Frame)                       : 0.147
Stream size                              : 1.02 GiB (83%)
Default                                  : Yes
Forced                                   : No
Color range                              : Limited
Color primaries                          : BT.709
Transfer characteristics                 : BT.709
Matrix coefficients                      : BT.709

Audio
ID                                       : 2
Format                                   : E-AC-3
Format/Info                              : Enhanced AC-3
Commercial name                          : Dolby Digital Plus
Codec ID                                 : A_EAC3
Duration                                 : 45 min 1 s
Bit rate mode                            : Constant
Bit rate                                 : 640 kb/s
Channel(s)                               : 6 channels
Channel layout                           : L R C LFE Ls Rs
Sampling rate                            : 48.0 kHz
Frame rate                               : 31.250 FPS (1536 SPF)
Compression mode                         : Lossy
Stream size                              : 206 MiB (16%)
Language                                 : English (US)
Service kind                             : Complete Main
Default                                  : Yes
Forced                                   : No

Text #1
ID                                       : 3
Format                                   : UTF-8
Codec ID                                 : S_TEXT/UTF8
Codec ID/Info                            : UTF-8 Plain Text
Duration                                 : 44 min 51 s
Bit rate                                 : 78 b/s
Frame rate                               : 0.343 FPS
Count of elements                        : 924
Stream size                              : 25.8 KiB (0%)
Language                                 : English (US)
Default                                  : No
Forced                                   : No

Text #2
ID                                       : 4
Format                                   : UTF-8
Codec ID                                 : S_TEXT/UTF8
Codec ID/Info                            : UTF-8 Plain Text
Duration                                 : 44 min 57 s
Bit rate                                 : 82 b/s
Frame rate                               : 0.378 FPS
Count of elements                        : 1020
Stream size                              : 27.2 KiB (0%)
Title                                    : SDH
Language                                 : English (US)
Default                                  : No
Forced                                   : No



Download
File Container: MKV
Video/Audio Codec: H264 (HIGH) EAC3
Video Resolution: 1280x720

1 Response to "[RR/NF/CU] Resident Alien S03E07 Here Comes My Baby 720p AMZN WEB-DL DDP5 1 H 264-NTb (1.2GB)"
03/28/24
15:21:30
ReadyPlayerOne

Thank you!

Please Login to post a comment.
If you don't have any account, please Register.
  • Subscribe my Feeds
  • Facebook
Encoding Queue:  x264  x265

Latest Episodes

Popular Movies and TV Shows

  • FBI: Most Wanted
  • FBI
  • FBI: International
  • Gods of Egypt
  • MR-9: Do or Die
  • The Big Door Prize
  • Under the Bridge
  • Loot
  • Drive-Away Dolls
  • Hanky Panky
  • Accidental Texan
  • Shogun
  • Monkey Man
  • Arthur the King
  • NCIS
  • The Neighborhood
  • My Mercury
  • NCIS: Hawai'i
  • Bob Hearts Abishola
  • The Simpsons
  • Downtown Owl
  • Aftermath
  • One Life
  • Tracker
  • The Sympathizer

Recent Comments

  • ReadyPlayerOne:

    THANK YOU

  • ReadyPlayerOne:

    THANK YOU

  • ReadyPlayerOne:

    THANK YOU

  • mentalityx:

    Thx dude.

  • 89M:

    NitroFlare's link is missing !!!
    Clicknupload's link is missing !!!

  • V4ND4L: May we get a ClicknUpload link for this, please. It's conspicuously missing for the team/size.
  • Bud:

    The file's half the size it should be & corrupted. Useless. Avoid.

  • mentalityx:

    Rad dude

  • mentalityx:

    Rad mate

  • waanaabe:

    I tried this file with 3 different players which all said they couldn't read the codec

  • Rosa: hi i have a question,this file size is 198mb,but on clickenupload is only 118mb is it right? what ha...
  • mike1204:

    Any reason why this episode is omitted from 'click'n'upload??

  • kellym2: I appreciate all the hard work the team does BUT there is no point in my paying for a Premium subscr...
  • Cinque_Persson: Why not skip the old news and hearsay and be constructive: what's the best alternatives for Win, Mac...
  • fallensammer:

    the file on click upload is 119mg onnly and is corrupted

Archives